Рыцари на Велосипедах / Knights on Bikes (Кен Рассел / Ken Russell) [1956, короткометражный, VHSRip]


Статистика раздачи [Обновить пиров]
Размер:  51 MB   |    Зарегистрирован:  1 год 2 месяца   |    Скачан:  0 раз

Полного источника не было: Никогда

 
   
 
 
 

[Цитировать]

Рыцари на Велосипедах / Knights on Bikes
Страна: Англия
Жанр: Арт-Хаус, короткометражка
Год выпуска: 1956
Продолжительность: 00:04:22
Перевод: Не требуется
Cубтитры: нет
Режиссер: Кен Рассел / Ken Russell
В ролях: информация отсутствует
Описание: Немая короткометражка, первый опыт Рассела в кино.
Качество видео: VHSRip
Формат видео: AVI
Видео: Video: Xvid 608x464 23.98fps 1360kbps [Video 0]
Аудио: Audio: Dolby AC3 48000Hz stereo 256kbps [Audio 1]

MediaInfo

General
Complete name : Q:\Рассел, Кен\[1956] Knights on Bikes.avi
Format : AVI
Format/Info : Audio Video Interleave
File size : 50.9 MiB
Duration : 4mn 22s
Overall bit rate : 1 626 Kbps
Writing application : Nandub v1.0rc2
Writing library : Nandub build 1852/release
Video
ID : 0
Format : MPEG-4 Visual
Format profile : Advanced Simple@L5
Format settings, BVOP : Yes
Format settings, QPel : No
Format settings, GMC : No warppoints
Format settings, Matrix : Default (MPEG)
Codec ID : XVID
Codec ID/Hint : XviD
Duration : 4mn 22s
Bit rate : 1 361 Kbps
Width : 608 pixels
Height : 464 pixels
Display aspect ratio : 4:3
Frame rate : 23.976 fps
Color space : YUV
Chroma subsampling : 4:2:0
Bit depth : 8 bits
Scan type : Progressive
Compression mode : Lossy
Bits/(Pixel*Frame) : 0.201
Stream size : 42.6 MiB (84%)
Writing library : XviD 1.0.3 (UTC 2004-12-20)
Audio
ID : 1
Format : AC-3
Format/Info : Audio Coding 3
Mode extension : CM (complete main)
Codec ID : 2000
Duration : 4mn 22s
Bit rate mode : Constant
Bit rate : 256 Kbps
Channel(s) : 2 channels
Channel positions : Front: L R
Sampling rate : 48.0 KHz
Bit depth : 16 bits
Compression mode : Lossy
Stream size : 8.02 MiB (16%)
Alignment : Split accross interleaves
Interleave, duration : 42 ms (1.00 video frame)
Interleave, preload duration : 500 ms

Скриншоты



[teatrix.ru].t4225.torrent 
Торрент: Зарегистрирован [ 2015-10-07 15:57 ] · 49206AC168A44558A4F114C7FA78C3DA7B8CAE44

Скачать .torrent

Скачать

16 KB

Статус: проверено
Скачан: 0 раз
Размер: 51 MB
terms.php



Быстрый ответ

Имя:

      
Для отправки сообщений необходимо включить JavaScript
Показать сообщения:    

Текущее время: 10-Дек 00:14

Часовой пояс: UTC + 3


Вы можете начинать темы
Вы можете отвечать на сообщения
Вы не можете редактировать свои сообщения
Вы не можете удалять свои сообщения
Вы не можете голосовать в опросах
Вы не можете прикреплять файлы к сообщениям
Вы можете скачивать файлы