Обратно / Короткометражка, снятая под впечатлением от Догмы '95 / Way Back / A Dogma '95 inspirated short movie (Жан Оливье / Jean Olivier) [2007, США, Короткий метр, драма, TVRip] Original Eng + Sub Fre + Sub Rus


Статистика раздачи [Обновить пиров]
Размер:  203 MB   |    Зарегистрирован:  1 год 1 месяц   |    Скачан:  0 раз

Полного источника не было: Никогда

 
   
 
 
 

[Цитировать]

Обратно - Короткометражка, снятая под впечатлением от Догмы'95 / Way Back - A Dogma'95 inspirated short movie
Страна: США
Жанр: Короткий метр, драма
Год выпуска: 2007
Продолжительность: 00:43:35
Перевод: Субтитры Доп. инфо о переводе: daft_digger
Cубтитры: французские (вшитые)
Оригинальная аудиодорожка: английский
Режиссер: Жан Оливье / Jean Olivier
В ролях: Джейсон Левинсон / Jason Levinson, Данэ МакДональд / Danae McDonald, Сесилия Маскуцио / Cecilia S.Mascuzio, Даниэль Родакович / Daniel Rodakowich, Райан Рид / Ryan Reed
Описание: Отец Джейсона доживает последние дни. Теперь ему предстоит собрать разрозненную семью за последним ужином.
Доп. информация: К сожалению, найти хоть что-то об этом фильме практически нереально.

Сэмпл: http://multi-up.com/618724
Качество видео: TVRip
Формат видео: AVI
Видео: DIVX 640х480 4:3 510 Kbps 29.970 fps
Аудио: MPEG Audio 128 Kbps 48.0 KHz 2 channels
Формат субтитров: softsub (SRT)

MediaInfo

Format: AVI
Format/Info: Audio Video Interleave
File size: 203 MiB
Duration: 43mn 35s
Overall bit rate: 652 Kbps
Writing application: MEncoder 1.0rc2-4.2.2
Writing library: MPlayer
Video
ID: 0
Format: MPEG-4 Visual
Format profile: Simple@L1
Format settings, BVOP: No
Format settings, QPel: No
Format settings, GMC: No warppoints
Format settings, Matrix: Default (H.263)
Codec ID: DIVX
Codec ID/Info: Project Mayo
Codec ID/Hint: DivX 4
Duration: 43mn 34s
Bit rate: 510 Kbps
Width: 640 pixels
Height: 480 pixels
Display aspect ratio: 4:3
Frame rate: 29.970 fps
Color space: YUV
Chroma subsampling: 4:2:0
Bit depth: 8 bits
Scan type: Progressive
Compression mode: Lossy
Bits/(Pixel*Frame): 0.055
Stream size: 159 MiB (78%)
Writing library: Lavc51.44.0
Audio
ID: 1
Format: MPEG Audio
Format version: Version 1
Format profile: Layer 3
Codec ID: 55
Codec ID/Hint: MP3
Duration: 43mn 35s
Bit rate mode: Constant
Bit rate: 128 Kbps
Channel(s): 2 channels
Sampling rate: 48.0 KHz
Compression mode: Lossy
Stream size: 39.9 MiB (20%)
Alignment: Aligned on interleaves
Interleave, duration: 24 ms (0.72 video frame)
Interleave, preload duration: 504 ms

Пример субтитров

1
00:00:22,689 --> 00:00:30,329
Нью-Йорк, понедельник, 16:43, вечер.
2
00:00:32,732 --> 00:00:33,866
Алло, Джейсон?
3
00:00:34,100 --> 00:00:35,768
Алло, Джейсон слушает.
4
00:00:38,838 --> 00:00:40,105
- Это Дайен.
- О, привет!
5
00:00:40,673 --> 00:00:42,608
- Я в порядке. Да.
- Понятно.
6
00:00:45,078 --> 00:00:47,012
Причина, по которой я звоню тебе,
7
00:00:47,947 --> 00:00:50,449
это твой отец. Твой папа.
8
00:00:51,051 --> 00:00:53,018
Серьезно?
9
00:00:54,421 --> 00:00:58,257
Думаю, я тебя не обрадую - у него был приступ, он в больнице.
10
00:00:59,559 --> 00:01:02,928
Да. Да.

Скриншот c названием фильма

Скриншоты

[teatrix.ru].t4230.torrent 
Торрент: Зарегистрирован [ 2015-10-07 15:57 ] · C26C4AF8CE7B82BAB241E16A1B21920DB37F010D

Скачать .torrent

Скачать

17 KB

Статус: проверено
Скачан: 0 раз
Размер: 203 MB
terms.php



Быстрый ответ

Имя:

      
Для отправки сообщений необходимо включить JavaScript
Показать сообщения:    

Текущее время: 02-Дек 23:06

Часовой пояс: UTC + 3


Вы можете начинать темы
Вы можете отвечать на сообщения
Вы не можете редактировать свои сообщения
Вы не можете удалять свои сообщения
Вы не можете голосовать в опросах
Вы не можете прикреплять файлы к сообщениям
Вы можете скачивать файлы