Элегия дороги / Elegy of a Voyage (Александр Сокуров / Alexander Sokurov) [2001, Россия, Франция, Нидерланды, фэнтези, драма, DVDRip]


Статистика раздачи [Обновить пиров]
Размер:  712 MB   |    Зарегистрирован:  1 год 2 месяца   |    Скачан:  0 раз

Полного источника не было: Никогда

 
   
 
 
 

[Цитировать]

Элегия дороги / Elegy of a Voyage
Страна: Россия, Франция, Нидерланды
Жанр: фэнтези, драма
Год выпуска: 2001
Продолжительность: 00:47:20
Перевод: Не требуется
Cубтитры: нет
Режиссер: Александр Сокуров / Alexander Sokurov
Описание: "Элегия дороги" - сказка о путешественнике, который преодолевает иллюзорное пространство, чтобы попасть в воображаемое прошлое. Ни популярности, ни славы. Из "Сала Перла" все время показа тонкой струйкой вытекали люди, и к концу фильма и так наполовину пустой зал был едва заполнен...

Сэмпл: http://multi-up.com/616516
Качество видео: DVDRip
Формат видео: AVI
Видео: XviD, 688x496 (1.39:1), 23.976 fps, ~1902 kbps avg, 0.232 bit/pixel
Аудио: 48 kHz, AC3 Dolby Digital, 2/0 (L,R) ch, ~192.00 kbps avg

MediaInfo

General
Complete name : D:\[Video]\Elegy of a Voyage\Elegy of a Voyage.avi
Format : AVI
Format/Info : Audio Video Interleave
File size : 712 MiB
Duration : 47mn 20s
Overall bit rate : 2 103 Kbps
Writing application : VirtualDubMod 1.5.10.3 | www.virtualdub-fr.org || (build 2550/release)
Writing library : VirtualDubMod build 2550/release
Video #0
ID : 0
Format : MPEG-4 Visual
Format profile : Advanced Simple@L5
Format settings, BVOP : Yes
Format settings, QPel : No
Format settings, GMC : No warppoints
Format settings, Matrix : Custom
Codec ID : XVID
Codec ID/Hint : XviD
Duration : 47mn 20s
Bit rate : 1 902 Kbps
Width : 688 pixels
Height : 496 pixels
Display aspect ratio : 1.387
Frame rate : 23.976 fps
Resolution : 8 bits
Colorimetry : 4:2:0
Scan type : Progressive
Bits/(Pixel*Frame) : 0.232
Stream size : 644 MiB (90%)
Writing library : XviD 64
Audio #1
ID : 1
Format : AC-3
Format/Info : Audio Coding 3
Codec ID : 2000
Duration : 47mn 20s
Bit rate mode : Constant
Bit rate : 192 Kbps
Channel(s) : 2 channels
Channel positions : Front: L R
Sampling rate : 48.0 KHz
Stream size : 65.0 MiB (9%)
Alignment : Split accross interleaves
Interleave, duration : 42 ms (1.00 video frame)
Interleave, preload duration : 500 ms

Скриншоты

[teatrix.ru].t4232.torrent 
Торрент: Зарегистрирован [ 2015-10-07 15:57 ] · C454A69CA55CA6005C68EF2BB86107D0A2D7875D

Скачать .torrent

Скачать

14 KB

Статус: проверено
Скачан: 0 раз
Размер: 712 MB
terms.php



Быстрый ответ

Имя:

      
Для отправки сообщений необходимо включить JavaScript
Показать сообщения:    

Текущее время: 10-Дек 19:42

Часовой пояс: UTC + 3


Вы можете начинать темы
Вы можете отвечать на сообщения
Вы не можете редактировать свои сообщения
Вы не можете удалять свои сообщения
Вы не можете голосовать в опросах
Вы не можете прикреплять файлы к сообщениям
Вы можете скачивать файлы