Догвилль: пилот / Dogville: The Pilot (Ларс фон Триер / Lars von Trier) [2003, Дания, драма, эксперимент, DVDRip] Sub Rus + Original Dan


Статистика раздачи [Обновить пиров]
Размер:  79 MB   |    Зарегистрирован:  1 год 1 месяц   |    Скачан:  0 раз

Полного источника не было: Никогда

 
   
 
 
 

[Цитировать]

Догвилль: пилот / Dogville: The Pilot-Страна: Дания
Жанр: драма, эксперимент
Год выпуска: 2003
Продолжительность: 00:06:05-Перевод: Субтитры (by sonnyb)
Cубтитры: русские
Оригинальная аудиодорожка: датский-Режиссер: Ларс фон Триер / Lars von Trier
В ролях: Сидсе Бабетт Кнудсен, Николай Ли Каас, Йенс Альбинус
Описание: Этот Догвилль тест был сделан в 2001 в предварительном этапе создания Догвилля для проверки сценария и того, как будут работать запасные декорации. В конце концов Ларс остался доволен общим результатом и он с продюсерами решили двигаться дальше к полнометражному фильму.
Доп. информация: Внимание: пилот состоит из сцен, которые также являются частью Догвилля (включая финал). - Скачать сам фильм - История создания фильма-IMDb: 5.4/10 from 171 users-Качество видео: DVDRip
Формат видео: AVI
Видео: 720x304 (2.37:1), 25 fps, XviD build 64 ~1417 kbps avg, 0.26 bit/pixel
Аудио: 48 kHz, AC3 Dolby Digital, 2/0 (L,R) ch, ~192 kbps
Формат субтитров: softsub (SRT)-

Пример субтитров

1
00:00:00,200 --> 00:00:04,830
Сцена, в которой Том слышит
выстрел
2
00:00:11,160 --> 00:00:14,516
Том прогуливался домой
через Догвилль той ночью,
3
00:00:14,720 --> 00:00:18,872
и поднялся очень сильный ветер,
который просто сотрясал городок…
4
00:00:22,800 --> 00:00:26,839
Том любил звук ветра, ревущего
над горными вершинами.
5
00:00:29,640 --> 00:00:31,312
Доброй ночи.
6
00:00:33,080 --> 00:00:37,631
Но в тот вечер ветер принёс
необычный звук с собой.
7
00:00:51,640 --> 00:00:54,393
Том не сомневался.
Это был выстрел.
8
00:00:54,600 --> 00:00:56,670
Со стороны Джорджтауна.
9
00:00:58,440 --> 00:01:02,513
Он послушал мгновение не будет ли
ещё выстрелов, но их не было.
10
00:01:05,720 --> 00:01:08,234
И Том сел на лавочку с видом на долину
11
00:01:08,440 --> 00:01:12,069
и на фруктовый сад Чака.
Он начал философствовать.
12
00:01:15,600 --> 00:01:18,194
Он любил сидеть на краю ущелья
13
00:01:18,400 --> 00:01:23,679
и знать, что будущее лежало там...
очень удобно ...и далеко ...от него...
14
00:01:28,400 --> 00:01:31,119
Он пробудился от другого
необычного звука.
15
00:01:31,800 --> 00:01:37,079
Старый Мозес лаял так, как
Том ещё не слышал его раньше.
16
00:01:38,240 --> 00:01:42,119
Сцена, в которой Догвилль украшают
17
00:01:44,560 --> 00:01:46,994
Это был день летнего праздника.
18
00:01:47,600 --> 00:01:51,673
Светило солнце
и большие пушистые семена
19
00:01:51,880 --> 00:01:55,316
из далекого луга
в Скалистых горах
20
00:01:55,520 --> 00:01:57,875
…падали на на улицу вязов как хлопья снега.

MediaInfo

Видео
Идентификатор : 0
Формат : MPEG-4 Visual
Профиль формата : Advanced Simple@L5
Параметр BVOP формата : 2
Параметр QPel формата : Нет
Параметр GMC формата : Без точки перехода
Параметр матрицы формата : Default (H.263)
Идентификатор кодека : XVID
Идентификатор кодека/Подсказка : XviD
Продолжительность : 6 м. 5 с.
Битрейт : 1418 Кбит/сек
Ширина : 720 пикс.
Высота : 304 пикс.
Соотношение сторон : 2,35:1
Частота кадров : 25,000 кадр/сек
Цветовое пространство : YUV
Подвыборка цветности : 4:2:0
Битовая глубина : 8 бит
Тип развёртки : Прогрессивная
Метод сжатия : С потерями
Бит/(Пиксели*Кадры) : 0.259
Размер потока : 61,7 Мбайт (78%)
Библиотека кодирования : XviD 64
Аудио
Идентификатор : 1
Формат : AC-3
Формат/Информация : Audio Coding 3
Расширение режима : CM (complete main)
Идентификатор кодека : 2000
Продолжительность : 6 м. 5 с.
Вид битрейта : Постоянный
Битрейт : 192 Кбит/сек
Каналы : 2 канала
Расположение каналов : Front: L R
Частота : 48,0 КГц
Битовая глубина : 16 бит
Метод сжатия : С потерями
Размер потока : 8,35 Мбайт (11%)
Выравнивание : Разделение по промежуткам
Продолжительность промежутка : 40 мс. (1,00 видеокадр)
Время предзагрузки промежутка : 500 ms

Скриншоты

[teatrix.ru].t4234.torrent 
Торрент: Зарегистрирован [ 2015-10-07 15:57 ] · A8FD19BF444A7979062FC8FB5298288D684BC6A8

Скачать .torrent

Скачать

13 KB

Статус: проверено
Скачан: 0 раз
Размер: 79 MB
terms.php



Быстрый ответ

Имя:

      
Для отправки сообщений необходимо включить JavaScript
Показать сообщения:    

Текущее время: 05-Дек 11:32

Часовой пояс: UTC + 3


Вы можете начинать темы
Вы можете отвечать на сообщения
Вы не можете редактировать свои сообщения
Вы не можете удалять свои сообщения
Вы не можете голосовать в опросах
Вы не можете прикреплять файлы к сообщениям
Вы можете скачивать файлы