Экстаз в Берлине, 1926 / Ecstasy in Berlin, 1926 (Мария Битти / Maria Beatty) [2004, США, артхаус, эротика, декаданс, лесбийская тема, фетиш, DVDRip]


Статистика раздачи [Обновить пиров]
Размер:  554 MB   |    Зарегистрирован:  1 год 2 месяца   |    Скачан:  0 раз

Полного источника не было: Никогда

 
   
 
 
 

[Цитировать]

Экстаз в Берлине, 1926 / Ecstasy in Berlin, 1926
Страна: США
Жанр: артхаус, эротика, декаданс, лесбийская тема, фетиш
Год выпуска: 2004
Продолжительность: 00:41:07
Перевод: Не требуется, музыкальное сопровождение
Cубтитры: нет
Режиссер: Мария Битти / Maria Beatty
В ролях: Соня Соверен, Паула Розенгартен
Описание: Очередной шедевр в стиле декаданса от известной режиссерши Марии Битти. Все ее фильмы - на тему фетишизма и лесбийского секса. На этот раз фильм стилизован под 20-е годы 20 века, действие происходит в Берлине.
Качество видео: DVDRip
Формат видео: AVI
Видео: Xvid 720x544 29.97fps 1 679 Kbps
Аудио: Dolby AC3 48000Hz stereo 192kbps

MediaInfo

General
Complete name : D: \Ecstasy in Berlin, 1926.DVDRip.avi
Format : AVI
Format/Info : Audio Video Interleave
File size : 554 MiB
Duration : 41mn 7s
Overall bit rate : 1 883 Kbps
Writing application : VirtualDubMod 1.5.10.3 | www.virtualdub-fr.org || (build 2550/release)
Writing library : VirtualDubMod build 2550/release
Video
ID : 0
Format : MPEG-4 Visual
Format profile : Advanced Simple@L5
Format settings, BVOP : Yes
Format settings, QPel : No
Format settings, GMC : No warppoints
Format settings, Matrix : Default (H.263)
Codec ID : XVID
Codec ID/Hint : XviD
Duration : 41mn 7s
Bit rate : 1 679 Kbps
Width : 720 pixels
Height : 544 pixels
Display aspect ratio : 4:3
Frame rate : 29.970 fps
Resolution : 8 bits
Colorimetry : 4:2:0
Scan type : Progressive
Bits/(Pixel*Frame) : 0.143
Stream size : 494 MiB (89%)
Writing library : XviD 1.2.1 (UTC 2008-12-04)
Audio
ID : 1
Format : AC-3
Format/Info : Audio Coding 3
Format_Settings_ModeExtension : CM (complete main)
Codec ID : 2000
Duration : 41mn 7s
Bit rate mode : Constant
Bit rate : 192 Kbps
Channel(s) : 2 channels
Channel positions : Front: L R
Sampling rate : 48.0 KHz
Stream size : 56.5 MiB (10%)
Alignment : Split accross interleaves
Interleave, duration : 33 ms (1.00 video frame)
Interleave, preload duration : 500 ms

Скриншот c названием фильма

Скриншоты

[teatrix.ru].t4235.torrent 
Торрент: Зарегистрирован [ 2015-10-07 15:57 ] · EEE5FB2B68FF0C8322C6801F25D661F649DB8D38

Скачать .torrent

Скачать

11 KB

Статус: проверено
Скачан: 0 раз
Размер: 554 MB
terms.php



Быстрый ответ

Имя:

      
Для отправки сообщений необходимо включить JavaScript
Показать сообщения:    

Текущее время: 10-Дек 06:07

Часовой пояс: UTC + 3


Вы можете начинать темы
Вы можете отвечать на сообщения
Вы не можете редактировать свои сообщения
Вы не можете удалять свои сообщения
Вы не можете голосовать в опросах
Вы не можете прикреплять файлы к сообщениям
Вы можете скачивать файлы