Папарацци / Paparazzi (Жак Розье / Jacques Rozier) [1964, короткометражка, DVDRip] sub (rus)


Статистика раздачи [Обновить пиров]
Размер:  151 MB   |    Зарегистрирован:  1 год 2 месяца   |    Скачан:  0 раз

Полного источника не было: Никогда

 
   
 
 
 

[Цитировать]

Папарацци / Paparazzi
Год выпуска: 1964
Страна: Франция
Жанр: короткометражка
Продолжительность: 00:17:50.279 (25661 frames)
Перевод: субтитры
Русские субтитры: есть
Режиссер: Жак Розье / Jacques Rozier
В ролях: Мишель Пикколи, Жан Леско, Дэвид Тонелли, Брижит Бардо, Жан-Люк Годар, Фриц Ланг, Джек Пэланс
Описание: Документальная короткометражка Жака Розье повествует о процессе работы съемочной группы Жан-Люка Годара над фильмом "Презрение". В центре внимания Розье - взаимоотношения Брижит Бардо с назойливыми папарацци.
Качество: DVDRip
Формат: AVI
Видео кодек: XviD
Аудио кодек: МР3
Видео: 512x384 (1.33:1), 23.976 fps, XviD build 50 ~1042 kbps avg, 0.22 bit/pixel
Аудио: 48 kHz, MPEG Layer 3, 2 ch, ~128.00 kbps avg
Медиаинфо">

Скриншоты Медиаинфо


General
Complete name : E:\001 МОИ РАЗДАЧИ\Папарацци\Paparazzi_[torrents.ru]_by_bm11\Paparazzi_[torrents.ru]_by_bm11.avi
Format : AVI
Format/Info : Audio Video Interleave
File size : 151 MiB
Duration : 17mn 50s
Overall bit rate : 1 180 Kbps
Writing application : VirtualDubMod 1.5.10.2 (build 2540/release)
Writing library : VirtualDubMod build 2540/release
Video
Format : MPEG-4 Visual
Format profile : Streaming Video@L1
Format settings, BVOP : Yes
Format settings, QPel : No
Format settings, GMC : No warppoints
Format settings, Matrix : Custom
Codec ID : XVID
Codec ID/Hint : XviD
Duration : 17mn 50s
Bit rate : 1 043 Kbps
Width : 512 pixels
Height : 384 pixels
Display aspect ratio : 4/3
Frame rate : 23.976 fps
Resolution : 24 bits
Colorimetry : 4:2:0
Scan type : Progressive
Bits/(Pixel*Frame) : 0.221
Stream size : 133 MiB (88%)
Writing library : XviD 50
Audio
Format : MPEG Audio
Format version : Version 1
Format profile : Layer 3
Codec ID : 55
Codec ID/Hint : MP3
Duration : 17mn 50s
Bit rate mode : Constant
Bit rate : 128 Kbps
Minimum bit rate : 128 Kbps
Channel(s) : 2 channels
Sampling rate : 48.0 KHz
Resolution : 16 bits
Stream size : 16.3 MiB (11%)
Alignment : Aligned on interleaves
Interleave, duration : 42 ms (1.00 video frame)
Interleave, preload duration : 504 ms
Writing library : LAME3.98r
Encoding settings : CBR

Фрагмент субтитров

1
00:00:00,050 --> 00:00:03,500
Режиссура, монтаж и сценарий
Жака Розье
2
00:00:07,500 --> 00:00:12,000
Текст читают: Мишель Пикколи,
Жан Леско, Давид Тонелли
Композитор Антуан Дюамель
3
00:00:16,049 --> 00:00:20,951
Ты прибыла на Капри
в 5 вечера 17 мая 1963 года.
4
00:00:55,000 --> 00:00:58,000
ПАПАРАЦЦИ
5
00:01:02,700 --> 00:01:05,660
Ты приехала на Капри для натурных
съемок картины "Презрение",
6
00:01:05,665 --> 00:01:10,490
кинематографической адаптации
романа Альберто Моравиа,
предпринятой Жан-Люком Годаром.
7
00:01:12,138 --> 00:01:15,365
В то же время на Капри
по той же причине пребывали
8
00:01:15,375 --> 00:01:16,900
Фриц Ланг,
9
00:01:16,910 --> 00:01:18,660
Джек Пэлэнс,
10
00:01:18,678 --> 00:01:20,830
Мишель Пикколи
11
00:01:20,847 --> 00:01:22,876
и Жоржия Молль.
12
00:01:24,150 --> 00:01:28,786
Каждое утро ты с группой
отправлялась в уединенный уголок
на южном побережье острова.
13
00:01:30,680 --> 00:01:34,590
Там расположена вилла,
ранее принадлежавшая итальянскому
писателю Курцио Малапарте,
14
00:01:34,595 --> 00:01:37,196
где и должны были сниматься
заключительные сцены "Презрения".
15
00:01:37,697 --> 00:01:39,756
На террасе, ...
16
00:01:41,768 --> 00:01:43,065
в интерьерах...
17
00:01:50,577 --> 00:01:52,945
или в непосредственной
близости от виллы.
18
00:02:05,425 --> 00:02:10,259
Построенная на скалистом мысе,
вилла идеально подходила для съемок.
19
00:02:14,067 --> 00:02:17,865
Хотя к ней есть сухопутная
дорога из города Капри,
20
00:02:17,971 --> 00:02:22,400
добираться морем гораздо проще.
[teatrix.ru].t4245.torrent 
Торрент: Зарегистрирован [ 2015-10-07 15:57 ] · 41908EF0B31C440CD45B92257EFAAA9626EF0F46

Скачать .torrent

Скачать

12 KB

Статус: проверено
Скачан: 0 раз
Размер: 151 MB
terms.php



Быстрый ответ

Имя:

      
Для отправки сообщений необходимо включить JavaScript
Показать сообщения:    

Текущее время: 10-Дек 11:57

Часовой пояс: UTC + 3


Вы можете начинать темы
Вы можете отвечать на сообщения
Вы не можете редактировать свои сообщения
Вы не можете удалять свои сообщения
Вы не можете голосовать в опросах
Вы не можете прикреплять файлы к сообщениям
Вы можете скачивать файлы