Снова в школу / Rentrée des classes (Жак Розье / Jacques Rozier) [1956 , короткометражка, DVDRip] sub (rus)


Статистика раздачи [Обновить пиров]
Размер:  151 MB   |    Зарегистрирован:  1 год 1 месяц   |    Скачан:  0 раз

Полного источника не было: Никогда

 
   
 
 
 

[Цитировать]

Снова в школу / Rentrée des classes
Год выпуска: 1956
Страна: Франция
Жанр: короткометражка
Продолжительность: 00:19:55.959 (29899 frames)
Перевод: субтитры
Русские субтитры: есть
Режиссер: Жак Розье / Jacques Rozier
В ролях: Рене Боглио / René Boglio, Мариус Сумьян / Marius Sumian, учителя и ученики французской школы
Описание: Фильм "Снова в школу" - дебютная короткометражка яркого, но незаслуженно забытого представителя "Новой волны" Жака Розье. Это - забавная зарисовка, озорной рассказ об одном дне из жизни незадачливого ученика.
Качество: DVDRip
Формат: AVI
Видео кодек: XviD
Аудио кодек: МР3
Видео: 640x480 (1.33:1), 25 fps, XviD build 50 ~919 kbps avg, 0.12 bit/pixel
Аудио: 48 kHz, MPEG Layer 3, 2 ch, ~128.00 kbps avg
Медиаинфо">

Скриншоты Медиаинфо


General
Complete name : E:\001 МОИ РАЗДАЧИ\Снова в школу\snova_v_shkolu_[torrents.ru]_by_bm11\snova_v_shkolu_[torrents.ru]_by_bm11.avi
Format : AVI
Format/Info : Audio Video Interleave
File size : 151 MiB
Duration : 19mn 55s
Overall bit rate : 1 057 Kbps
Writing application : VirtualDubMod 1.5.10.2 (build 2540/release)
Writing library : VirtualDubMod build 2540/release
Video
Format : MPEG-4 Visual
Format profile : Streaming Video@L1
Format settings, BVOP : Yes
Format settings, QPel : No
Format settings, GMC : No warppoints
Format settings, Matrix : Custom
Codec ID : XVID
Codec ID/Hint : XviD
Duration : 19mn 55s
Bit rate : 920 Kbps
Width : 640 pixels
Height : 480 pixels
Display aspect ratio : 4/3
Frame rate : 25.000 fps
Resolution : 24 bits
Colorimetry : 4:2:0
Scan type : Progressive
Bits/(Pixel*Frame) : 0.120
Stream size : 131 MiB (87%)
Writing library : XviD 50
Audio
Format : MPEG Audio
Format version : Version 1
Format profile : Layer 3
Codec ID : 55
Codec ID/Hint : MP3
Duration : 19mn 55s
Bit rate mode : Constant
Bit rate : 128 Kbps
Channel(s) : 2 channels
Sampling rate : 48.0 KHz
Resolution : 16 bits
Stream size : 18.2 MiB (12%)
Alignment : Split accross interleaves
Interleave, duration : 40 ms (1.00 video frame)
Interleave, preload duration : 500 ms

Фрагмент субтитров

1
00:00:01,711 --> 00:00:05,711
Пьер Неррисс из "Группы тридцати"
представляет
2
00:00:10,500 --> 00:00:13,500
Боглийо Рене
3
00:00:28,713 --> 00:00:31,713
в фильме Жака Розье
4
00:00:32,712 --> 00:00:35,272
СНОВА В ШКОЛУ
5
00:01:26,592 --> 00:01:28,703
- Сделал домашнее задание?
- Нет еще.
6
00:01:28,712 --> 00:01:29,642
Я тоже.
7
00:01:29,752 --> 00:01:30,990
А я его и не делаю.
8
00:01:31,832 --> 00:01:34,262
Нарвешься на неприятности!
9
00:01:34,392 --> 00:01:35,620
Мне плевать!
10
00:01:36,272 --> 00:01:38,203
- Брось ранец туда.
- Зачем?
11
00:01:38,312 --> 00:01:41,540
Скажешь учителю, что уронил
его во время игры.
12
00:01:41,555 --> 00:01:44,647
- Мне на него плевать.
- Так бросай. Бьемся об заклад - не бросишь!
13
00:01:44,752 --> 00:01:46,365
На сколько?
14
00:01:46,472 --> 00:01:48,622
- На 50 франков.
- Деньги вперед.
15
00:01:48,832 --> 00:01:51,455
Не раньше, чем ты это сделаешь,
цыпленочек!
16
00:01:51,472 --> 00:01:53,303
Я тебе не цыпленочек!
17
00:02:05,952 --> 00:02:07,670
А теперь давай мне деньги.
18
00:02:07,872 --> 00:02:09,351
Черта с два!
19
00:02:13,112 --> 00:02:14,465
Прекрати! Прекрати!
20
00:02:17,352 --> 00:02:18,785
Стой!
[teatrix.ru].t4246.torrent 
Торрент: Зарегистрирован [ 2015-10-07 15:57 ] · E9482FCB1F7559CD469DE70D15332EEB0D304BF9

Скачать .torrent

Скачать

12 KB

Статус: проверено
Скачан: 0 раз
Размер: 151 MB
terms.php



Быстрый ответ

Имя:

      
Для отправки сообщений необходимо включить JavaScript
Показать сообщения:    

Текущее время: 04-Дек 13:15

Часовой пояс: UTC + 3


Вы можете начинать темы
Вы можете отвечать на сообщения
Вы не можете редактировать свои сообщения
Вы не можете удалять свои сообщения
Вы не можете голосовать в опросах
Вы не можете прикреплять файлы к сообщениям
Вы можете скачивать файлы