Бесстрастные моменты / Passionless Moments (Джейн Кэмпион / Jane Campion, Герард Ли / Gerard Lee) [1983, Австралия, экспериментально-философская драма, BDRip-AVC] VO + Original


Статистика раздачи [Обновить пиров]
Размер:  421 MB   |    Зарегистрирован:  1 год 2 месяца   |    Скачан:  0 раз

Полного источника не было: Никогда

 
   
 
 
 

[Цитировать]

- Бесстрастные моменты / Passionless MomentsСтрана: Австралия
Жанр: экспериментально-философская драма
Год выпуска: 1983
Продолжительность: 00:11:57
Перевод: Профессиональный (одноголосый закадровый)
Cубтитры: нет
Режиссер: Джейн Кэмпион / Jane Campion, Герард Ли / Gerard Lee
В ролях: Дэвид Бентон, Ann Burriman, Алан Браун, Sean Callinan, Пол Чабб, Сью Колли, Haedyn Cunningham, Рон Гоберт, Елиас Ибрахим, Paul Melchert-Описание: Нас окружают миллионы мгновений, но, как открыли кинематографисты, у каждого мгновения есть свое хрупкое присутствие, которое исчезает почти в тот же самый момент как и появляется. © Джейн Кэмпион
10 произвольно схваченных моментов бытия у разных людей: упитанный мужчина занимается йогой и размышляет о сексе, неверный гей пытается настроить глаз на два предмета одновременно, красивая девушка ест ветчину и думает о хрюшке на ферме своего дяди и другие.
Режиссеры за этот фильм в 1984 году получили награду от Australian Film Institute "Лучший экспериментальный фильм".-imdb: 7.0/10 (269)
kinopoisk: 7.667 (3)-Made with MeGUI, muxed with mkvmerge.-Качество: BDRip (Sweetie 1989 CC 1080p Blu-ray AVC DTS-HD MA 5.1-DON)
Формат: MKV
Видео кодек: AVC
Аудио кодек: AC3
Видео: 740x552; ~4500 kbps; 23,976 fps; 0,453 bpp
Аудио #1: English; AC3; 192 kbps; 1 ch; Original
Аудио #2: Russian; AC3; 192 kbps; 2 ch; VO-

Screenshots


-Source vs Encode-

mediainfo

General
UniqueID                         : 226376249994209505649735597714086410848 (0xAA4E7AD7DB038BE8BB9F1D2644D9BA60)
Complete name                    : Passionless.Moments.1983.BDRip.by.gjiAm.tRuAVC.mkv
Format                           : Matroska
File size                        : 421 MiB
Duration                         : 11mn 57s
Overall bit rate                 : 4 917 Kbps
Encoded date                     : UTC 2011-10-16 17:52:01
Writing application              : mkvmerge v5.0.1 ('Es ist Sommer') built on Oct  9 2011 11:55:43
Writing library                  : libebml v1.2.2 + libmatroska v1.3.0
Video
ID                               : 1
Format                           : AVC
Format/Info                      : Advanced Video Codec
Format profile                   : High@L3.2
Format settings, CABAC           : Yes
Format settings, ReFrames        : 12 frames
Codec ID                         : V_MPEG4/ISO/AVC
Duration                         : 11mn 57s
Bit rate                         : 4 435 Kbps
Width                            : 740 pixels
Height                           : 552 pixels
Display aspect ratio             : 4:3
Frame rate                       : 23.976 fps
Color space                      : YUV
Chroma subsampling               : 4:2:0
Bit depth                        : 8 bits
Scan type                        : Progressive
Bits/(Pixel*Frame)               : 0.453
Stream size                      : 379 MiB (90%)
Title                            : Rip by gjiAm [tRuAVC]
Writing library                  : x264 core 118 r2085kMod 8a62835
Encoding settings                : cabac=1 / ref=12 / deblock=1:-2:-1 / analyse=0x3:0x133 / me=umh / subme=11 / psy=1 / fade_compensate=0.90 / psy_rd=1.00:0.05 / mixed_ref=1 / me_range=32 / chroma_me=0 / trellis=2 / 8x8dct=1 / cqm=0 / deadzone=21,11 / fast_pskip=1 / chroma_qp_offset=-3 / threads=12 / sliced_threads=0 / nr=0 / decimate=1 / interlaced=0 / bluray_compat=0 / constrained_intra=0 / bframes=12 / b_pyramid=2 / b_adapt=2 / b_bias=0 / direct=3 / weightb=1 / open_gop=0 / weightp=2 / keyint=250 / keyint_min=23 / scenecut=40 / intra_refresh=0 / rc_lookahead=60 / rc=crf / mbtree=1 / crf=19.8000 / qcomp=0.70 / qpmin=0 / qpmax=69 / qpstep=4 / ip_ratio=1.40 / aq=3:0.90
Language                         : English
Matrix coefficients              : BT.709-5, BT.1361, IEC 61966-2-4 709, SMPTE RP177
Audio #1
ID                               : 2
Format                           : AC-3
Format/Info                      : Audio Coding 3
Mode extension                   : CM (complete main)
Codec ID                         : A_AC3
Duration                         : 11mn 57s
Bit rate mode                    : Constant
Bit rate                         : 192 Kbps
Channel(s)                       : 1 channel
Channel positions                : Front: C
Sampling rate                    : 48.0 KHz
Bit depth                        : 16 bits
Compression mode                 : Lossy
Stream size                      : 16.4 MiB (4%)
Title                            : Original
Language                         : English
Audio #2
ID                               : 3
Format                           : AC-3
Format/Info                      : Audio Coding 3
Mode extension                   : CM (complete main)
Codec ID                         : A_AC3
Duration                         : 11mn 57s
Bit rate mode                    : Constant
Bit rate                         : 192 Kbps
Channel(s)                       : 2 channels
Channel positions                : Front: L R
Sampling rate                    : 48.0 KHz
Bit depth                        : 16 bits
Compression mode                 : Lossy
Stream size                      : 16.4 MiB (4%)
Title                            : VO
Language                         : Russian

x264 log

-[NoImage] avs [info]: 740x552p 1:1 @ 24000/1001 fps (cfr)
-[NoImage] x264 [warning]: --psnr used with psy on: results will be invalid!
-[NoImage] x264 [warning]: --tune psnr should be used if attempting to benchmark psnr!
-[NoImage] x264 [info]: using SAR=1/1
-[NoImage] x264 [info]: using cpu capabilities: MMX2 SSE2Fast SSSE3 FastShuffle SSE4.2
-[NoImage] x264 [info]: profile High, level 3.2
-[NoImage] x264 [info]: cabac=1 ref=12 deblock=1:-2:-1 analyse=0x3:0x133 me=umh subme=11 psy=1 fade_compensate=0.90 psy_rd=1.00:0.05 mixed_ref=1 me_range=32 chroma_me=0 trellis=2 8x8dct=1 cqm=0 deadzone=21,11 fast_pskip=1 chroma_qp_offset=-3 threads=12 sliced_threads=0 nr=0 decimate=1 interlaced=0 bluray_compat=0 constrained_intra=0 bframes=12 b_pyramid=2 b_adapt=2 b_bias=0 direct=3 weightb=1 open_gop=0 weightp=2 keyint=250 keyint_min=23 scenecut=40 intra_refresh=0 rc_lookahead=60 rc=crf mbtree=1 crf=19.8000 qcomp=0.70 qpmin=0 qpmax=69 qpstep=4 ip_ratio=1.40 aq=3:0.90
-[NoImage] x264 [info]: started at Sun Oct 16 12:55:06 2011
-[NoImage]
-[NoImage] x264 [info]: frame I:99 Avg QP:16.72 size: 58651 PSNR Mean Y:46.85 U:99.72 V:100.00 Avg:48.40 Global:47.66
-[NoImage] x264 [info]: frame P:3063 Avg QP:20.22 size: 31256 PSNR Mean Y:44.10 U:99.67 V:99.99 Avg:45.82 Global:44.91
-[NoImage] x264 [info]: frame B:14046 Avg QP:23.43 size: 21711 PSNR Mean Y:41.96 U:99.75 V:99.99 Avg:43.70 Global:42.81
-[NoImage] x264 [info]: consecutive B-frames: 0.9% 0.9% 2.6% 8.5% 26.6% 33.6% 6.3% 7.8% 1.7% 7.0% 2.2% 1.0% 0.8%
-[NoImage] x264 [info]: mb I I16..4: 5.7% 82.5% 11.8%
-[NoImage] x264 [info]: mb P I16..4: 0.4% 24.2% 1.4% P16..4: 23.3% 28.2% 8.8% 2.7% 0.1% skip:10.7%
-[NoImage] x264 [info]: mb B I16..4: 0.1% 13.3% 0.3% B16..8: 30.7% 18.7% 5.8% direct: 9.2% skip:22.0% L0:45.3% L1:36.6% BI:18.1%
-[NoImage] x264 [info]: 8x8 transform intra:95.4% inter:62.9%
-[NoImage] x264 [info]: direct mvs spatial:100.0% temporal:0.0%
-[NoImage] x264 [info]: coded y,uvDC,uvAC intra: 97.3% 0.0% 0.0% inter: 43.7% 0.0% 0.0%
-[NoImage] x264 [info]: i16 v,h,dc,p: 56% 20% 7% 17%
-[NoImage] x264 [info]: i8 v,h,dc,ddl,ddr,vr,hd,vl,hu: 11% 8% 15% 11% 13% 12% 8% 12% 11%
-[NoImage] x264 [info]: i4 v,h,dc,ddl,ddr,vr,hd,vl,hu: 11% 38% 4% 6% 9% 9% 7% 7% 8%
-[NoImage] x264 [info]: i8c dc,h,v,p: 100% 0% 0% 0%
-[NoImage] x264 [info]: Weighted P-Frames: Y:13.6% UV:0.0%
-[NoImage] x264 [info]: ref P L0: 34.1% 6.1% 17.0% 8.7% 7.7% 6.2% 5.6% 3.3% 3.1% 2.7% 2.7% 2.6% 0.3% 0.0%
-[NoImage] x264 [info]: ref B L0: 61.0% 12.6% 7.8% 4.5% 3.6% 3.1% 2.7% 1.8% 1.6% 1.0% 0.4%
-[NoImage] x264 [info]: ref B L1: 89.7% 10.3%
-[NoImage] x264 [info]: SSIM Mean Y:0.9766626 (16.319db)
-[NoImage] x264 [info]: PSNR Mean Y:42.368 U:99.738 V:99.992 Avg:44.102 Global:43.138 kb/s:4530.99
-[NoImage] encoded 17208 frames, 5.13 fps, 4531.00 kb/s
-[NoImage] x264 [info]: ended at Sun Oct 16 13:51:03 2011
-[NoImage] x264 [info]: encoding duration 0:55:57
[teatrix.ru].t4253.torrent 
Торрент: Зарегистрирован [ 2015-10-07 15:57 ] · 037CC0EB10D1DFB1C5EF65DDE2BBD7FE6A59E9DD

Скачать .torrent

Скачать

17 KB

Статус: проверено
Скачан: 0 раз
Размер: 421 MB
terms.php



Быстрый ответ

Имя:

      
Для отправки сообщений необходимо включить JavaScript
Показать сообщения:    

Текущее время: 07-Дек 19:26

Часовой пояс: UTC + 3


Вы можете начинать темы
Вы можете отвечать на сообщения
Вы не можете редактировать свои сообщения
Вы не можете удалять свои сообщения
Вы не можете голосовать в опросах
Вы не можете прикреплять файлы к сообщениям
Вы можете скачивать файлы