Урок дисциплины - Кожура / An Exercise in Discipline - Peel (Джейн Кэмпион / Jane Campion) [1982, Австралия, драма, BDRip-AVC] VO + Original


Статистика раздачи [Обновить пиров]
Размер:  301 MB   |    Зарегистрирован:  1 год 2 месяца   |    Скачан:  0 раз

Полного источника не было: Никогда

 
   
 
 
 

[Цитировать]

- Урок дисциплины - Кожура / An Exercise in Discipline - PeelСтрана: Австралия
Жанр: драма
Год выпуска: 1982
Продолжительность: 00:08:39
Перевод: Профессиональный (одноголосый закадровый)
Cубтитры: нет
Режиссер: Джейн Кэмпион / Jane Campion
В ролях: Тим Пай, Кэти Пай, Бен Мартин-Описание: Реальный случай в жизни реальной семьи. Брат с сестрой и его сын едут смотреть участок земли. Сестра боится пропустить любимый сериал и все время трещит об этом своему брату и ругает его. Ребенок берет апельсин и шкурки бросает за окно автомобиля..
Режиссер за этот фильм в 1986 году получила Золотую пальмовую ветвь в Каннах как "Лучший короткометражный фильм".-imdb: 6.3/10 (320)
kinopoisk: 6.833 (6)-Made with MeGUI, muxed with mkvmerge.-Качество: BDRip (Sweetie 1989 CC 1080p Blu-ray AVC DTS-HD MA 5.1-DON)
Формат: MKV
Видео кодек: AVC
Аудио кодек: AC3
Видео: 1008x544; 4480 kbps; 23,976 fps; 0,352 bpp
Аудио #1: English; AC3; 192 kbps; 1 ch; Original
Аудио #2: Russian; AC3; 192 kbps; 2 ch; VO-

Screenshots


-Source vs Encode-

mediainfo

General
UniqueID                         : 226042560308255757864355325078852869723 (0xAA0E36ABE455B2AF9AD20CE190701E5B)
Complete name                    : An.Exercise.in.Discipline.Peel.1982.BDRip.by.gjiAm.tRuAVC.mkv
Format                           : Matroska
File size                        : 301 MiB
Duration                         : 8mn 39s
Overall bit rate                 : 4 856 Kbps
Encoded date                     : UTC 2011-10-15 15:23:32
Writing application              : mkvmerge v5.0.1 ('Es ist Sommer') built on Oct  9 2011 11:55:43
Writing library                  : libebml v1.2.2 + libmatroska v1.3.0
Video
ID                               : 1
Format                           : AVC
Format/Info                      : Advanced Video Codec
Format profile                   : High@L4.0
Format settings, CABAC           : Yes
Format settings, ReFrames        : 12 frames
Format settings, GOP             : M=1, N=32
Codec ID                         : V_MPEG4/ISO/AVC
Duration                         : 8mn 39s
Bit rate                         : 4 480 Kbps
Width                            : 1 008 pixels
Height                           : 544 pixels
Display aspect ratio             : 1.853
Frame rate                       : 23.976 fps
Color space                      : YUV
Chroma subsampling               : 4:2:0
Bit depth                        : 8 bits
Scan type                        : Progressive
Bits/(Pixel*Frame)               : 0.341
Stream size                      : 271 MiB (90%)
Title                            : Rip by gjiAm [tRuAVC]
Writing library                  : x264 core 118 r2085kMod 8a62835
Encoding settings                : cabac=1 / ref=12 / deblock=1:-2:-1 / analyse=0x3:0x133 / me=umh / subme=11 / psy=1 / fade_compensate=0.90 / psy_rd=1.00:0.00 / mixed_ref=1 / me_range=32 / chroma_me=1 / trellis=2 / 8x8dct=1 / cqm=0 / deadzone=21,11 / fast_pskip=0 / chroma_qp_offset=-2 / threads=12 / sliced_threads=0 / nr=0 / decimate=0 / interlaced=0 / bluray_compat=0 / constrained_intra=0 / bframes=11 / b_pyramid=2 / b_adapt=2 / b_bias=0 / direct=3 / weightb=1 / open_gop=0 / weightp=2 / keyint=250 / keyint_min=23 / scenecut=40 / intra_refresh=0 / rc_lookahead=60 / rc=2pass / mbtree=1 / bitrate=4480 / ratetol=1.0 / qcomp=0.60 / qpmin=0 / qpmax=69 / qpstep=4 / cplxblur=20.0 / qblur=0.5 / ip_ratio=1.40 / aq=1:1.00
Language                         : English
Matrix coefficients              : BT.709-5, BT.1361, IEC 61966-2-4 709, SMPTE RP177
Audio #1
ID                               : 2
Format                           : AC-3
Format/Info                      : Audio Coding 3
Mode extension                   : CM (complete main)
Codec ID                         : A_AC3
Duration                         : 8mn 39s
Bit rate mode                    : Constant
Bit rate                         : 192 Kbps
Channel(s)                       : 1 channel
Channel positions                : Front: C
Sampling rate                    : 48.0 KHz
Bit depth                        : 16 bits
Compression mode                 : Lossy
Stream size                      : 11.9 MiB (4%)
Title                            : Original
Language                         : English
Audio #2
ID                               : 3
Format                           : AC-3
Format/Info                      : Audio Coding 3
Mode extension                   : CM (complete main)
Codec ID                         : A_AC3
Duration                         : 8mn 39s
Bit rate mode                    : Constant
Bit rate                         : 192 Kbps
Channel(s)                       : 2 channels
Channel positions                : Front: L R
Sampling rate                    : 48.0 KHz
Bit depth                        : 16 bits
Compression mode                 : Lossy
Stream size                      : 11.9 MiB (4%)
Title                            : VO
Language                         : Russian

x264 log

-[NoImage] avs [info]: 1008x544p 1:1 @ 24000/1001 fps (cfr)
-[NoImage] x264 [warning]: --psnr used with psy on: results will be invalid!
-[NoImage] x264 [warning]: --tune psnr should be used if attempting to benchmark psnr!
-[NoImage] x264 [info]: using SAR=1/1
-[NoImage] x264 [info]: using cpu capabilities: MMX2 SSE2Fast SSSE3 FastShuffle SSE4.2
-[NoImage] x264 [info]: profile High, level 4.0
-[NoImage] x264 [info]: cabac=1 ref=12 deblock=1:-2:-1 analyse=0x3:0x133 me=umh subme=11 psy=1 fade_compensate=0.90 psy_rd=1.00:0.00 mixed_ref=1 me_range=32 chroma_me=1 trellis=2 8x8dct=1 cqm=0 deadzone=21,11 fast_pskip=0 chroma_qp_offset=-2 threads=12 sliced_threads=0 nr=0 decimate=0 interlaced=0 bluray_compat=0 constrained_intra=0 bframes=11 b_pyramid=2 b_adapt=2 b_bias=0 direct=3 weightb=1 open_gop=0 weightp=2 keyint=250 keyint_min=23 scenecut=40 intra_refresh=0 rc_lookahead=60 rc=2pass mbtree=1 bitrate=4480 ratetol=1.0 qcomp=0.60 qpmin=0 qpmax=69 qpstep=4 cplxblur=20.0 qblur=0.5 ip_ratio=1.40 aq=1:1.00
-[NoImage] x264 [info]: started at Sat Oct 15 01:24:53 2011
-[NoImage]
-[NoImage] x264 [info]: frame I:86 Avg QP:19.99 size: 66939 PSNR Mean Y:45.42 U:50.00 V:50.60 Avg:46.51 Global:45.53
-[NoImage] x264 [info]: frame P:2477 Avg QP:22.96 size: 37302 PSNR Mean Y:42.83 U:48.76 V:49.48 Avg:43.88 Global:42.86
-[NoImage] x264 [info]: frame B:9887 Avg QP:25.25 size: 19432 PSNR Mean Y:40.33 U:47.92 V:48.34 Avg:41.67 Global:41.10
-[NoImage] x264 [info]: consecutive B-frames: 1.5% 1.2% 3.2% 16.2% 29.5% 33.8% 6.1% 3.7% 1.7% 2.2% 0.9% 0.0%
-[NoImage] x264 [info]: mb I I16..4: 2.4% 89.7% 7.9%
-[NoImage] x264 [info]: mb P I16..4: 0.5% 22.7% 1.0% P16..4: 27.8% 33.6% 9.8% 2.7% 0.1% skip: 1.8%
-[NoImage] x264 [info]: mb B I16..4: 0.0% 5.5% 0.1% B16..8: 39.2% 23.3% 5.4% direct:11.3% skip:15.0% L0:45.9% L1:42.2% BI:11.9%
-[NoImage] x264 [info]: 8x8 transform intra:94.9% inter:69.8%
-[NoImage] x264 [info]: direct mvs spatial:99.2% temporal:0.8%
-[NoImage] x264 [info]: coded y,uvDC,uvAC intra: 98.4% 71.4% 18.6% inter: 61.0% 25.6% 2.0%
-[NoImage] x264 [info]: i16 v,h,dc,p: 58% 24% 3% 16%
-[NoImage] x264 [info]: i8 v,h,dc,ddl,ddr,vr,hd,vl,hu: 6% 7% 4% 11% 17% 15% 15% 12% 13%
-[NoImage] x264 [info]: i4 v,h,dc,ddl,ddr,vr,hd,vl,hu: 9% 7% 1% 9% 17% 16% 15% 13% 13%
-[NoImage] x264 [info]: i8c dc,h,v,p: 31% 29% 17% 23%
-[NoImage] x264 [info]: Weighted P-Frames: Y:14.0% UV:3.1%
-[NoImage] x264 [info]: ref P L0: 36.8% 7.7% 17.4% 9.3% 7.1% 5.7% 4.7% 3.0% 2.6% 2.2% 1.8% 1.5% 0.2% 0.0%
-[NoImage] x264 [info]: ref B L0: 71.2% 11.7% 5.8% 3.2% 2.4% 1.9% 1.5% 0.9% 0.8% 0.4% 0.2%
-[NoImage] x264 [info]: ref B L1: 93.6% 6.4%
-[NoImage] x264 [info]: SSIM Mean Y:0.9599878 (13.978db)
-[NoImage] x264 [info]: PSNR Mean Y:40.862 U:48.101 V:48.586 Avg:42.142 Global:41.416 kb/s:4472.03
-[NoImage] encoded 12450 frames, 4.21 fps, 4472.04 kb/s
-[NoImage] x264 [info]: ended at Sat Oct 15 02:14:09 2011
-[NoImage] x264 [info]: encoding duration 0:49:16
[teatrix.ru].t4255.torrent 
Торрент: Зарегистрирован [ 2015-10-07 15:57 ] · 060E20744302424BBB254B774EDCEA5E5AC95560

Скачать .torrent

Скачать

12 KB

Статус: проверено
Скачан: 0 раз
Размер: 301 MB
terms.php



Быстрый ответ

Имя:

      
Для отправки сообщений необходимо включить JavaScript
Показать сообщения:    

Текущее время: 08-Дек 14:57

Часовой пояс: UTC + 3


Вы можете начинать темы
Вы можете отвечать на сообщения
Вы не можете редактировать свои сообщения
Вы не можете удалять свои сообщения
Вы не можете голосовать в опросах
Вы не можете прикреплять файлы к сообщениям
Вы можете скачивать файлы