Ее девичья история / Своя девичья история / A Girl's Own Story (Джейн Кэмпион / Jane Campion) [1984, Австралия, драма, BDRip-AVC] Original + Sub (rus)


Статистика раздачи [Обновить пиров]
Размер:  854 MB   |    Зарегистрирован:  1 год 2 месяца   |    Скачан:  1 раз

Полного источника не было: 1 месяц 15 дней

 
   
 
 
 

[Цитировать]

- Ее девичья история / A Girl's Own StoryСтрана: Австралия
Жанр: драма
Год выпуска: 1984
Продолжительность: 00:26:33
Перевод: Субтитры
Cубтитры: русские
Режиссер: Джейн Кэмпион / Jane Campion
В ролях: Габриэль Шорнег, Джеральдин Хэйвуд, Марина Найт, Джоэнн Габбе, Коллин Фицпатрик-Описание: В одной из первых своих работ, высоко отмеченной критиками, режиссер рассматривает такие жизненные аспекты как подростковая сексуальность, битломания и кризис взаимоотношений между родителями, которым за 40..
Действие фильма происходит в первой половине 60-ых годов: три девочки - подружки взрослеют, но у каждой свой путь во взрослую жизнь, к запретному-неизведанному.
Фильм очень емкий, нет ни одного лишнего кадра, снят в черно-белом цвете.
За свой сценарий Джейн Кэмпион получила награду от Australian Film Institute.-imdb: 6.6/10 (291)
kinopoisk: 7.727 (16)-Made with MeGUI, muxed with mkvmerge.-Качество: BDRip (Sweetie 1989 CC 1080p Blu-ray AVC DTS-HD MA 5.1-DON)
Формат: MKV
Видео кодек: AVC
Аудио кодек: AC3
Видео: 740x552; 4303 kbps; 23,976 fps; 0,430 bpp
Аудио #1: English; AC3; 192 kbps; 1 ch; Original
Субтитры #1: Russian (wallpaper, Akuli, therthe)-

Screenshots


-Source vs Encode-

mediainfo

General
UniqueID                         : 237348958584136965140534733802804522742 (0xB28FBF2526B19C6B867975E1815EAEF6)
Complete name                    : A.Girls.Own.Story.BDRip.by.gjiAm.tRuAVC.mkv
Format                           : Matroska
File size                        : 854 MiB
Duration                         : 26mn 33s
Overall bit rate                 : 4 497 Kbps
Encoded date                     : UTC 2011-10-14 16:51:04
Writing application              : mkvmerge v3.4.0 ('Rapunzel') built on May 15 2010 09:38:20
Writing library                  : libebml v0.8.0 + libmatroska v0.9.0
Video
ID                               : 1
Format                           : AVC
Format/Info                      : Advanced Video Codec
Format profile                   : High@L3.2
Format settings, CABAC           : Yes
Format settings, ReFrames        : 12 frames
Codec ID                         : V_MPEG4/ISO/AVC
Duration                         : 26mn 33s
Bit rate                         : 4 216 Kbps
Width                            : 740 pixels
Height                           : 552 pixels
Display aspect ratio             : 4:3
Frame rate                       : 23.976 fps
Color space                      : YUV
Chroma subsampling               : 4:2:0
Bit depth                        : 8 bits
Scan type                        : Progressive
Bits/(Pixel*Frame)               : 0.430
Stream size                      : 801 MiB (94%)
Title                            : Rip by gjiAm [tRuAVC]
Writing library                  : x264 core 118 r2085kMod 8a62835
Encoding settings                : cabac=1 / ref=12 / deblock=1:-2:-1 / analyse=0x3:0x133 / me=umh / subme=11 / psy=1 / fade_compensate=0.90 / psy_rd=1.10:0.00 / mixed_ref=1 / me_range=32 / chroma_me=0 / trellis=2 / 8x8dct=1 / cqm=0 / deadzone=21,11 / fast_pskip=1 / chroma_qp_offset=-2 / threads=12 / sliced_threads=0 / nr=0 / decimate=1 / interlaced=0 / bluray_compat=0 / constrained_intra=0 / bframes=12 / b_pyramid=2 / b_adapt=2 / b_bias=0 / direct=3 / weightb=1 / open_gop=0 / weightp=2 / keyint=250 / keyint_min=23 / scenecut=40 / intra_refresh=0 / rc_lookahead=60 / rc=crf / mbtree=1 / crf=19.5000 / qcomp=0.70 / qpmin=0 / qpmax=69 / qpstep=4 / ip_ratio=1.40 / aq=2:1.00
Language                         : English
Matrix coefficients              : BT.709-5, BT.1361, IEC 61966-2-4 709, SMPTE RP177
Audio
ID                               : 2
Format                           : AC-3
Format/Info                      : Audio Coding 3
Mode extension                   : CM (complete main)
Codec ID                         : A_AC3
Duration                         : 26mn 33s
Bit rate mode                    : Constant
Bit rate                         : 192 Kbps
Channel(s)                       : 1 channel
Channel positions                : Front: C
Sampling rate                    : 48.0 KHz
Bit depth                        : 16 bits
Compression mode                 : Lossy
Stream size                      : 36.5 MiB (4%)
Title                            : Original
Language                         : English
Text
ID                               : 3
Format                           : UTF-8
Codec ID                         : S_TEXT/UTF8
Codec ID/Info                    : UTF-8 Plain Text
Title                            : wallpaper, Akuli, therthe
Language                         : Russian

x264 log

-[NoImage] avs [info]: 740x552p 1:1 @ 24000/1001 fps (cfr)
-[NoImage] x264 [warning]: --psnr used with psy on: results will be invalid!
-[NoImage] x264 [warning]: --tune psnr should be used if attempting to benchmark psnr!
-[NoImage] x264 [info]: using SAR=1/1
-[NoImage] x264 [info]: using cpu capabilities: MMX2 SSE2Fast SSSE3 FastShuffle SSE4.2
-[NoImage] x264 [info]: profile High, level 3.2
-[NoImage] x264 [info]: cabac=1 ref=12 deblock=1:-2:-1 analyse=0x3:0x133 me=umh subme=11 psy=1 fade_compensate=0.90 psy_rd=1.10:0.00 mixed_ref=1 me_range=32 chroma_me=0 trellis=2 8x8dct=1 cqm=0 deadzone=21,11 fast_pskip=1 chroma_qp_offset=-2 threads=12 sliced_threads=0 nr=0 decimate=1 interlaced=0 bluray_compat=0 constrained_intra=0 bframes=12 b_pyramid=2 b_adapt=2 b_bias=0 direct=3 weightb=1 open_gop=0 weightp=2 keyint=250 keyint_min=23 scenecut=40 intra_refresh=0 rc_lookahead=60 rc=crf mbtree=1 crf=19.5000 qcomp=0.70 qpmin=0 qpmax=69 qpstep=4 ip_ratio=1.40 aq=2:1.00
-[NoImage] x264 [info]: started at Fri Oct 14 02:30:50 2011
-[NoImage]
-[NoImage] x264 [info]: frame I:249 Avg QP:18.36 size: 55474 PSNR Mean Y:45.46 U:99.75 V:98.61 Avg:47.19 Global:46.87
-[NoImage] x264 [info]: frame P:7577 Avg QP:21.63 size: 30261 PSNR Mean Y:43.02 U:99.83 V:98.67 Avg:44.75 Global:44.19
-[NoImage] x264 [info]: frame B:30375 Avg QP:23.75 size: 20211 PSNR Mean Y:41.20 U:99.86 V:98.67 Avg:42.96 Global:42.58
-[NoImage] x264 [info]: consecutive B-frames: 1.0% 0.6% 2.2% 20.7% 28.9% 39.1% 4.4% 1.8% 0.3% 0.5% 0.2% 0.1% 0.1%
-[NoImage] x264 [info]: mb I I16..4: 4.8% 82.5% 12.8%
-[NoImage] x264 [info]: mb P I16..4: 0.2% 23.2% 1.6% P16..4: 24.0% 30.1% 10.1% 3.0% 0.1% skip: 7.7%
-[NoImage] x264 [info]: mb B I16..4: 0.0% 10.0% 0.4% B16..8: 35.8% 19.9% 6.3% direct:10.3% skip:17.3% L0:45.5% L1:39.3% BI:15.2%
-[NoImage] x264 [info]: 8x8 transform intra:94.4% inter:64.3%
-[NoImage] x264 [info]: direct mvs spatial:100.0% temporal:0.0%
-[NoImage] x264 [info]: coded y,uvDC,uvAC intra: 97.4% 0.0% 0.0% inter: 52.8% 0.0% 0.0%
-[NoImage] x264 [info]: i16 v,h,dc,p: 33% 29% 9% 30%
-[NoImage] x264 [info]: i8 v,h,dc,ddl,ddr,vr,hd,vl,hu: 9% 8% 8% 11% 15% 14% 12% 12% 12%
-[NoImage] x264 [info]: i4 v,h,dc,ddl,ddr,vr,hd,vl,hu: 10% 32% 3% 7% 12% 11% 9% 8% 9%
-[NoImage] x264 [info]: i8c dc,h,v,p: 100% 0% 0% 0%
-[NoImage] x264 [info]: Weighted P-Frames: Y:12.5% UV:0.0%
-[NoImage] x264 [info]: ref P L0: 31.7% 9.0% 17.6% 8.9% 7.6% 5.8% 5.4% 3.1% 3.0% 2.6% 2.6% 2.3% 0.4% 0.0%
-[NoImage] x264 [info]: ref B L0: 65.6% 11.8% 6.7% 4.0% 3.0% 2.7% 2.2% 1.5% 1.3% 0.8% 0.4%
-[NoImage] x264 [info]: ref B L1: 92.7% 7.3%
-[NoImage] x264 [info]: SSIM Mean Y:0.9719436 (15.520db)
-[NoImage] x264 [info]: PSNR Mean Y:41.586 U:99.854 V:98.667 Avg:43.340 Global:42.873 kb/s:4303.13
-[NoImage] encoded 38201 frames, 5.28 fps, 4303.14 kb/s
-[NoImage] x264 [info]: ended at Fri Oct 14 04:31:24 2011
-[NoImage] x264 [info]: encoding duration 2:00:34
[teatrix.ru].t4256.torrent 
Торрент: Зарегистрирован [ 2015-10-07 15:57 ] · 32CACB71809DB963B65024FCCF69CCCFB29E0B56

Скачать .torrent

Скачать

17 KB

Статус: проверено
Скачан: 1 раз
Размер: 854 MB
terms.php



Быстрый ответ

Имя:

      
Для отправки сообщений необходимо включить JavaScript
Показать сообщения:    

Текущее время: 07-Дек 23:19

Часовой пояс: UTC + 3


Вы можете начинать темы
Вы можете отвечать на сообщения
Вы не можете редактировать свои сообщения
Вы не можете удалять свои сообщения
Вы не можете голосовать в опросах
Вы не можете прикреплять файлы к сообщениям
Вы можете скачивать файлы