Квартира / Apartamentul / The Apartment (Константин Попеску / Constantin Popescu) [2004, Румыния, короткий метр, комедия, DVDRip]


Статистика раздачи [Обновить пиров]
Размер:  247 MB   |    Зарегистрирован:  1 год 1 месяц   |    Скачан:  1 раз

Полного источника не было: 1 месяц 23 дня

 
   
 
 
 

[Цитировать]

Квартира / Apartamentul
Страна: Румыния
Жанр: короткий метр, комедия
Год выпуска: 2004
Продолжительность: 00:20:33
Перевод: Не требуется
Cубтитры: нет
Режиссер: Константин Попеску / Constantin Popescu
В ролях: Лаура Илица, Дана Неделку, Никодим Унгуряну
Описание: Фарс без слов о человеке, который встаёт, готовится к работе, оставляет свою жену в квартире и ... заходит в дом с другой стороны.
Качество видео: DVDRip
Формат видео: AVI
Видео: 672x368 (1.83:1), 50 fps, XviD MPEG-4 ~1502 kbps avg, 0.12 bit/pixel
Аудио: 48 kHz, MPEG Layer 3, 2 ch, ~160.00 kbps avg

MediaInfo

Видео
Идентификатор : 0
Формат : MPEG-4 Visual
Профиль формата : Advanced Simple@L5
Параметр BVOP формата : 2
Параметр QPel формата : Нет
Параметр GMC формата : Без точки перехода
Параметр матрицы формата : Default (H.263)
Режим смешивания : Сжатый битовый поток
Идентификатор кодека : XVID
Идентификатор кодека/Подсказка : XviD
Продолжительность : 20 м.
Битрейт : 1501 Кбит/сек
Ширина : 672 пикс.
Высота : 368 пикс.
Соотношение сторон : 16:9
Частота кадров : 50,000 кадр/сек
Цветовое пространство : YUV
Подвыборка цветности : 4:2:0
Битовая глубина : 8 бит
Тип развёртки : Прогрессивная
Метод сжатия : С потерями
Бит/(Пиксели*Кадры) : 0.121
Размер потока : 221 Мбайт (89%)
Библиотека кодирования : XviD 62
Аудио
Идентификатор : 1
Формат : MPEG Audio
Версия формата : Version 1
Профиль формата : Layer 3
Режим : Joint stereo
Расширение режима : MS Stereo
Идентификатор кодека : 55
Идентификатор кодека/Подсказка : MP3
Продолжительность : 20 м.
Вид битрейта : Постоянный
Битрейт : 160 Кбит/сек
Каналы : 2 канала
Частота : 48,0 КГц
Метод сжатия : С потерями
Размер потока : 23,5 Мбайт (10%)
Выравнивание : Соединение по промежуткам
Продолжительность промежутка : 24 мс. (1,20 видеокадр)
Время предзагрузки промежутка : 504 ms

Скриншоты

[teatrix.ru].t4260.torrent 
Торрент: Зарегистрирован [ 2015-10-07 15:57 ] · 274327E807223EE70A9266DD97D8F41BE037A1A6

Скачать .torrent

Скачать

20 KB

Статус: проверено
Скачан: 1 раз
Размер: 247 MB
terms.php



Быстрый ответ

Имя:

      
Для отправки сообщений необходимо включить JavaScript
Показать сообщения:    

Текущее время: 05-Дек 23:34

Часовой пояс: UTC + 3


Вы можете начинать темы
Вы можете отвечать на сообщения
Вы не можете редактировать свои сообщения
Вы не можете удалять свои сообщения
Вы не можете голосовать в опросах
Вы не можете прикреплять файлы к сообщениям
Вы можете скачивать файлы