Линза / Lens (Илья Чернецов / Il'ya Chernetsov) [2010, Россия, арт-хаус, HDRip] Original Rus


Статистика раздачи [Обновить пиров]
Размер:  1.45 GB   |    Зарегистрирован:  1 год 1 месяц   |    Скачан:  0 раз

Полного источника не было: 8 месяцев 15 дней

 
   
 
 
 

[Цитировать]

Линза / Lens
Страна: Россия
Жанр: гоп-арт
Год выпуска: 2010
Продолжительность: 00:15:00
Перевод: Отсутствует
Cубтитры: нет
Оригинальная аудиодорожка: русский
Режиссер: Илья Чернецов / Il'ya Chernetsov
В ролях: Сергей Коновалов, Илья Чернецов, Лена Яруллина, Юрис Лауциныш, Саша Роковая, Сева Петрушин.
Описание: Бодрые пацанчики и правильные тёлки. Что мы знаем о них? Ведь по большому счету, кроме того, что они мастерски щелкают семки, мы ничего о них не знаем.
А меж тем эти люди живут полноценной жизнью. Они мечтают, страдают, стремятся к чему-то…
Они даже влюбляются. Строят отношения. А что может быть важнее отношений между полами? Да ничего. Спаривание – наиважнейшая хрень для нашего вида и мы прекрасно это понимаем. Но ленимся.
И вот пока мы ловим лулзы в этих ваших интернетах, простые пацанчики и нормальные девахи создают семьи и ведут нормальную, правильную жизнь.
Бросайте ваши дела.
В кинозале гаснет свет…
Занавес открывается…
Доп. информация: Русское независимое кино. Постмодернизм.
Качество видео: HDRip
Формат видео: MPEG-PS
Видео: MPEG2, 1920x1080, 29.97, 12,4 mb/sec vbr, bit 0.200
Аудио: MPEG Audio 48000Hz stereo 384kbps
Сэмпл: http://ifolder.ru/26117538

MediaInfo

Формат : MPEG-PS
Размер файла : 1,45 Гбайт
Продолжительность : 15 м.
Общий поток : 13,0 Мбит/сек
Видео
Идентификатор : 224 (0xE0)
Формат : MPEG Video
Версия формата : Version 2
Профиль формата : Main@High
Параметр BVOP формата : Да
Параметр матрицы формата : По умолчанию
Параметры GOP формата : M=3, N=15
Продолжительность : 15 м.
Вид битрейта : Переменный
Битрейт : 12,4 Мбит/сек
Номинальный битрейт : 18,5 Мбит/сек
Ширина : 1920 пикс.
Высота : 1080 пикс.
Соотношение сторон : 16:9
Частота кадров : 29,970 кадр/сек
Стандарт вещания : NTSC
Цветовое пространство : YUV
Подвыборка цветности : 4:2:0
Битовая глубина : 8 бит
Тип развёртки : Прогрессивная
Метод сжатия : С потерями
Бит/(Пиксели*Кадры) : 0.200
Размер потока : 1,38 Гбайт (95%)
Аудио
Идентификатор : 192 (0xC0)
Формат : MPEG Audio
Версия формата : Version 1
Профиль формата : Layer 2
Продолжительность : 15 м.
Вид битрейта : Постоянный
Битрейт : 384 Кбит/сек
Каналы : 2 канала
Частота : 48,0 КГц
Метод сжатия : С потерями
Задержка видео : 24 мс.
Размер потока : 43,7 Мбайт (3%)

Скриншот c названием фильма

Скриншоты

[teatrix.ru].t4262.torrent 
Торрент: Зарегистрирован [ 2015-10-07 15:57 ] · 910E044A1C1BA131C14F89EB2E5A918B5E7B2189

Скачать .torrent

Скачать

15 KB

Статус: проверено
Скачан: 0 раз
Размер: 1.45 GB
terms.php



Быстрый ответ

Имя:

      
Для отправки сообщений необходимо включить JavaScript
Показать сообщения:    

Текущее время: 03-Дек 22:48

Часовой пояс: UTC + 3


Вы можете начинать темы
Вы можете отвечать на сообщения
Вы не можете редактировать свои сообщения
Вы не можете удалять свои сообщения
Вы не можете голосовать в опросах
Вы не можете прикреплять файлы к сообщениям
Вы можете скачивать файлы