Вот и все / Voila (Бруно Подалидес / Bruno Podalydès) [1994, Франция, комедия, DVDRip] VovaZorro, MinimalBoy Sub Rus + Original Fre


Статистика раздачи [Обновить пиров]
Размер:  522 MB   |    Зарегистрирован:  1 год 1 месяц   |    Скачан:  0 раз

Полного источника не было: Никогда

 
   
 
 
 

[Цитировать]

Вот и все / Voila
Страна: Франция
Жанр: комедия
Год выпуска: 1994
Продолжительность: 00:31:36
Перевод: Субтитры VovaZorro, MinimalBoy
Cубтитры: русские
Оригинальная аудиодорожка: французский
Режиссер: Бруно Подалидес / Bruno Podalydès
В ролях: Marcel Loshouarn,Бруно Подалидес, Дени Подалидес, Жан Подалидес, Паскаль Рокар
Описание:
У молодого человека есть очень любопытная навязчивая идея по поводу его двухмесячного сына. Однажды он ее воплощает в жизнь: увозит ребенка на машине далеко от города, съезжает с шоссе, останавливается в болотистой местности и уходит с ним в ночь...
Доп. информация:
Рип с раздачи DVD-5 http://teatrix.ru/viewtopic.php?t=7118
Большое спасибо MinimalBoy
http://www.imdb.com/title/tt0121080/
Ratings: 6.0/10
Сэмпл: http://multi-up.com/563717
Качество видео: DVDRip
Формат видео: AVI
Видео: Xvid 704x432 25.00fps 2174kbps
Аудио: MPEG Audio Layer 3 48000Hz stereo 128kbps
Формат субтитров: softsub (SRT)

MediaInfo

Format : AVI
Format/Info : Audio Video Interleave
File size : 522 MiB
Duration : 31mn 36s
Overall bit rate : 2 310 Kbps
Writing application : VirtualDubMod 1.5.4.1 (build 2178/release)
Writing library : VirtualDubMod build 2178/release
Video
ID : 0
Format : MPEG-4 Visual
Format profile : Advanced Simple@L5
Format settings, BVOP : Yes
Format settings, QPel : No
Format settings, GMC : No warppoints
Format settings, Matrix : Custom
Codec ID : XVID
Codec ID/Hint : XviD
Duration : 31mn 36s
Bit rate : 2 175 Kbps
Width : 704 pixels
Height : 432 pixels
Display aspect ratio : 1.630
Frame rate : 25.000 fps
Color space : YUV
Chroma subsampling : 4:2:0
Bit depth : 8 bits
Scan type : Progressive
Bits/(Pixel*Frame) : 0.286
Stream size : 492 MiB (94%)
Writing library : XviD 1.1.2 (UTC 2006-11-01)
Audio
ID : 1
Format : MPEG Audio
Format version : Version 1
Format profile : Layer 3
Mode : Joint stereo
Mode extension : MS Stereo
Codec ID : 55
Codec ID/Hint : MP3
Duration : 31mn 36s
Bit rate mode : Constant
Bit rate : 128 Kbps
Channel(s) : 2 channels
Sampling rate : 48.0 KHz
Stream size : 28.9 MiB (6%)
Alignment : Aligned on interleaves
Interleave, duration : 80 ms (2.00 video frames)
Interleave, preload duration : 504 ms
Writing library : LAME3.97
Encoding settings : -m j -V 4 -q 2 -lowpass 17 -b 128

Скриншот c названием фильма

Скриншоты

[teatrix.ru].t4263.torrent 
Торрент: Зарегистрирован [ 2015-10-07 15:57 ] · 3EFB58122E402764832CFCAB4B87F96A539C3B9C

Скачать .torrent

Скачать

11 KB

Статус: проверено
Скачан: 0 раз
Размер: 522 MB
terms.php



Быстрый ответ

Имя:

      
Для отправки сообщений необходимо включить JavaScript
Показать сообщения:    

Текущее время: 05-Дек 01:21

Часовой пояс: UTC + 3


Вы можете начинать темы
Вы можете отвечать на сообщения
Вы не можете редактировать свои сообщения
Вы не можете удалять свои сообщения
Вы не можете голосовать в опросах
Вы не можете прикреплять файлы к сообщениям
Вы можете скачивать файлы