Версаль, левый берег / Versailles Rive-Gauche (Бруно Подалидес / Bruno Podalydès) [1992, Франция, комедия, DVDRip] VovaZorro, MinimalBoy Sub Rus + Original Fre


Статистика раздачи [Обновить пиров]
Размер:  605 MB   |    Зарегистрирован:  1 год 1 месяц   |    Скачан:  0 раз

Полного источника не было: Никогда

 
   
 
 
 

[Цитировать]

Версаль, левый берег / Versailles Rive-Gauche
Страна: Франция
Жанр: комедия
Год выпуска: 1992
Продолжительность: 00:44:50
Перевод: Субтитры VovaZorro, MinimalBoy
Cубтитры: русские
Оригинальная аудиодорожка: французский
Режиссер: Бруно Подалидес / Bruno Podalydès
В ролях: Дени Подалидес, Изабель Канделье, Филипп Юшан, Ариан Пирье, Мишель Вюйеромо
Описание:
Арно, молодой человек из Версаля, приглашает Клер, молодую парижанку, на ужин к себе домой. Он готовит шикарные блюда, продумывает до мелочей каждую деталь вечера. Но так получилось, что девушка приходит в неподходящий момент...
Доп. информация:
Рип с раздачи DVD-5 http://teatrix.ru/viewtopic.php?t=7118
Большое спасибо MinimalBoy
http://www.imdb.com/title/tt0105738/
Ratings: 7.0/10
Сэмпл: http://multi-up.com/563716
Качество видео: DVDRip
Формат видео: AVI
Видео: Xvid 656x416 25.00fps 1751kbps
Аудио: MPEG Audio Layer 3 48000Hz stereo 128kbps
Формат субтитров: softsub (SRT)

MediaInfo

Format : AVI
Format/Info : Audio Video Interleave
File size : 605 MiB
Duration : 44mn 50s
Overall bit rate : 1 887 Kbps
Writing application : VirtualDubMod 1.5.4.1 (build 2178/release)
Writing library : VirtualDubMod build 2178/release
Video
ID : 0
Format : MPEG-4 Visual
Format profile : Advanced Simple@L5
Format settings, BVOP : Yes
Format settings, QPel : No
Format settings, GMC : No warppoints
Format settings, Matrix : Custom
Codec ID : XVID
Codec ID/Hint : XviD
Duration : 44mn 50s
Bit rate : 1 751 Kbps
Width : 656 pixels
Height : 416 pixels
Display aspect ratio : 1.577
Frame rate : 25.000 fps
Color space : YUV
Chroma subsampling : 4:2:0
Bit depth : 8 bits
Scan type : Progressive
Bits/(Pixel*Frame) : 0.257
Stream size : 562 MiB (93%)
Writing library : XviD 1.1.2 (UTC 2006-11-01)
Audio
ID : 1
Format : MPEG Audio
Format version : Version 1
Format profile : Layer 3
Mode : Joint stereo
Mode extension : MS Stereo
Codec ID : 55
Codec ID/Hint : MP3
Duration : 44mn 50s
Bit rate mode : Constant
Bit rate : 128 Kbps
Channel(s) : 2 channels
Sampling rate : 48.0 KHz
Stream size : 41.0 MiB (7%)
Alignment : Aligned on interleaves
Interleave, duration : 80 ms (2.00 video frames)
Interleave, preload duration : 504 ms
Writing library : LAME3.97
Encoding settings : -m j -V 4 -q 2 -lowpass 17 -b 128

Скриншот c названием фильма

Скриншоты

[teatrix.ru].t4264.torrent 
Торрент: Зарегистрирован [ 2015-10-07 15:57 ] · 444F5F9AB157176AAFD1F50DB4FA981B828DFB17

Скачать .torrent

Скачать

12 KB

Статус: проверено
Скачан: 0 раз
Размер: 605 MB
terms.php



Быстрый ответ

Имя:

      
Для отправки сообщений необходимо включить JavaScript
Показать сообщения:    

Текущее время: 04-Дек 21:20

Часовой пояс: UTC + 3


Вы можете начинать темы
Вы можете отвечать на сообщения
Вы не можете редактировать свои сообщения
Вы не можете удалять свои сообщения
Вы не можете голосовать в опросах
Вы не можете прикреплять файлы к сообщениям
Вы можете скачивать файлы