Дым / Smoke / Dym (Григорий Тисецкий / Grzegorz Cisiecki) [2007, Польша, мистика, элитарное кино, триллер, короткометражка, DVDRip]


Статистика раздачи [Обновить пиров]
Размер:  70 MB   |    Зарегистрирован:  1 год 2 месяца   |    Скачан:  2 раза

Полного источника не было: 5 дней

 
   
 
 
 

[Цитировать]

Дым / Smoke / Dym
Страна: Польша
Жанр: мистика, элитарное кино, триллер, короткометражка
Год выпуска: 2007
Продолжительность: 00:07:12
Перевод: Не требуется
Cубтитры: нет
Режиссер: Григорий Тисецкий / Grzegorz Cisiecki
В ролях: Катарзина Далек, Гжегош Голашевски, Хуберт Ярчак, Малгожата Котик, Марк Малак, Бартломей Новосельский, Ориана Сойка, Марта Шумель, Кшиштоф Вах
Описание:
Культовая польская короткометражка, повествующая о человеке оказавшемся заложником сюрреалистического безумия.
Доп. информация:
Григорий Тисецкий
Родился в Минске в 1985 году.
Приобрёл скандальную славу благодаря короткометражке "Евгения" (2005), которая была крайне резко воспринята белорусской цензурой и попала под запрет.
С 2006 года живёт и работает в Польше.
В 2007 снял культовую короткометражку "Дым".
Imdb - 7.4
kinopoisk - 8.0
Сэмпл: http://multi-up.com/564168
Качество видео: DVDRip
Формат видео: AVI
Видео: Xvid 720x400 25.00fps 1217kbps
Аудио: MPEG Audio Layer 3 44100Hz stereo 128kbps

MediaInfo

Format : AVI
Format/Info : Audio Video Interleave
File size : 69.7 MiB
Duration : 7mn 12s
Overall bit rate : 1 353 Kbps
Writing application : VirtualDubMod 1.5.4.1 (build 2178/release)
Writing library : VirtualDubMod build 2178/release
Video
ID : 0
Format : MPEG-4 Visual
Format profile : Advanced Simple@L5
Format settings, BVOP : No
Format settings, QPel : No
Format settings, GMC : No warppoints
Format settings, Matrix : Custom
Codec ID : XVID
Codec ID/Hint : XviD
Duration : 7mn 12s
Bit rate : 1 217 Kbps
Width : 720 pixels
Height : 400 pixels
Display aspect ratio : 16:9
Frame rate : 25.000 fps
Color space : YUV
Chroma subsampling : 4:2:0
Bit depth : 8 bits
Scan type : Progressive
Bits/(Pixel*Frame) : 0.169
Stream size : 62.7 MiB (90%)
Writing library : XviD 1.2.0.dev47 (UTC 2006-11-01)
Audio
ID : 1
Format : MPEG Audio
Format version : Version 1
Format profile : Layer 3
Mode : Joint stereo
Mode extension : MS Stereo
Codec ID : 55
Codec ID/Hint : MP3
Duration : 7mn 12s
Bit rate mode : Constant
Bit rate : 128 Kbps
Channel(s) : 2 channels
Sampling rate : 44.1 KHz
Stream size : 6.60 MiB (9%)
Alignment : Split accross interleaves
Interleave, duration : 80 ms (2.00 video frames)
Interleave, preload duration : 500 ms

Скриншот c названием фильма

Скриншоты

[teatrix.ru].t4265.torrent 
Торрент: Зарегистрирован [ 2015-10-07 15:57 ] · BFE31C85F809E5179178FB17D269186EF1A71BC1

Скачать .torrent

Скачать

11 KB

Статус: проверено
Скачан: 2 раз
Размер: 70 MB
terms.php



Быстрый ответ

Имя:

      
Для отправки сообщений необходимо включить JavaScript
Показать сообщения:    

Текущее время: 09-Дек 14:40

Часовой пояс: UTC + 3


Вы можете начинать темы
Вы можете отвечать на сообщения
Вы не можете редактировать свои сообщения
Вы не можете удалять свои сообщения
Вы не можете голосовать в опросах
Вы не можете прикреплять файлы к сообщениям
Вы можете скачивать файлы