Последний раунд / Last round / Sidste omgang (Томас Винтерберг / Thomas Vinterberg) [1993, Дания, короткий метр, драма, DVDRip] Sub Rus + Original Dan


Статистика раздачи [Обновить пиров]
Размер:  400 MB   |    Зарегистрирован:  1 год 1 месяц   |    Скачан:  0 раз

Полного источника не было: Никогда

 
   
 
 
 

[Цитировать]

Последний раунд / Sidste omgang-Страна: Дания
Жанр: короткий метр, драма
Год выпуска: 1993
Продолжительность: 00:32:51-Перевод: Субтитры (by sonnyb) Блог
Cубтитры: русские (внешние), английские (вшитые)
Оригинальная аудиодорожка: датский-Режиссер: Томас Винтерберг / Thomas Vinterberg
В ролях: Томас Бо Ларсен, Анн Элеонора Ёргенсен, Йенс Альбинус-Описание: Проникновенная история о последнем дне и ночи молодого человека в Копенгагене. Его прощание с друзьями, городом, семьей. Его прощание с жизнью.-Доп. информация: В девятнадцать лет Винтерберг поступает в Датскую национальную киношколу, которую с успехом заканчивает в 1993 году. Его дипломный проект — короткометражный фильм «Последний раунд» получает награду продюсеров и приз жюри на международном студенческом кинофестивале в Мюнхене, а также первый приз на фестивале в Тель-Авиве.-IMDb: 7.6/10-Фильмы режиссера:
Величайшие герои (1996)
Торжество (1998)
Все о любви (2003)
Дорогая Венди (2004)
Возвращение домой (2007)
Субмарино (2010)-Качество видео: DVDRip
Формат видео: AVI
Видео: 702x574 (1.22:1), 25 fps, XviD build 46 ~1689 kbps avg, 0.17 bit/pixel
Аудио: 48 kHz, MPEG Layer 3, 2 ch, ~192.00 kbps avg
Формат субтитров: softsub (SRT)

MediaInfo

Общее
Полное имя : E:\Last round aka Sidste omgang (Thomas Vinterberg) 1993 Subs\Last round aka Sidste omgang (Thomas Vinterberg) 1993 Subs.avi
Формат : AVI
Формат/Информация : Audio Video Interleave
Размер файла : 400 Мбайт
Продолжительность : 32 м.
Общий поток : 1704 Кбит/сек
Видео
Идентификатор : 0
Формат : MPEG-4 Visual
Профиль формата : Simple@L3
Параметр BVOP формата : Нет
Параметр QPel формата : Нет
Параметр GMC формата : Без точки перехода
Параметр матрицы формата : Default (H.263)
Идентификатор кодека : XVID
Идентификатор кодека/Подсказка : XviD
Продолжительность : 32 м.
Битрейт : 1498 Кбит/сек
Ширина : 702 пикс.
Высота : 574 пикс.
Соотношение сторон : 4:3
Частота кадров : 25,000 кадр/сек
Цветовое пространство : YUV
Подвыборка цветности : 4:2:0
Битовая глубина : 8 бит
Тип развёртки : Прогрессивная
Метод сжатия : С потерями
Бит/(Пиксели*Кадры) : 0.149
Размер потока : 352 Мбайт (88%)
Библиотека кодирования : XviD 1.1.2 (UTC 2006-11-01)
Аудио
Идентификатор : 1
Формат : MPEG Audio
Версия формата : Version 1
Профиль формата : Layer 3
Режим : Joint stereo
Расширение режима : MS Stereo
Идентификатор кодека : 55
Идентификатор кодека/Подсказка : MP3
Продолжительность : 32 м.
Вид битрейта : Постоянный
Битрейт : 192 Кбит/сек
Каналы : 2 канала
Частота : 48,0 КГц
Метод сжатия : С потерями
Задержка видео : 24 мс.
Размер потока : 45,1 Мбайт (11%)
Выравнивание : Разделение по промежуткам
Продолжительность промежутка : 24 мс. (0,60 видеокадр)

Скриншоты

Датское кино здесь
[teatrix.ru].t4269.torrent 
Торрент: Зарегистрирован [ 2015-10-07 15:57 ] · A8BC2E368DEBC58157EE68809D9F3212ABE85C8F

Скачать .torrent

Скачать

16 KB

Статус: проверено
Скачан: 0 раз
Размер: 400 MB
terms.php



Быстрый ответ

Имя:

      
Для отправки сообщений необходимо включить JavaScript
Показать сообщения:    

Текущее время: 05-Дек 21:34

Часовой пояс: UTC + 3


Вы можете начинать темы
Вы можете отвечать на сообщения
Вы не можете редактировать свои сообщения
Вы не можете удалять свои сообщения
Вы не можете голосовать в опросах
Вы не можете прикреплять файлы к сообщениям
Вы можете скачивать файлы