Анна / Anna (Рунар Рунарссон / Rúnar Rúnarsson) [2009, Дания, драма, короткометражка, DVDRip] Sub rus + original dan


Статистика раздачи [Обновить пиров]
Размер:  624 MB   |    Зарегистрирован:  1 год 2 месяца   |    Скачан:  0 раз

Полного источника не было: Никогда

 
   
 
 
 

[Цитировать]

Анна / Anna
Страна: Дания
Жанр: драма, короткометражка
Год выпуска: 2009
Продолжительность: 00:36:14
Перевод: Субтитры (by sonnyb)
Cубтитры: русские
Оригинальная аудиодорожка: датский
Режиссер: Рунар Рунарссон / Rúnar Rúnarsson
В ролях: Мари Хаммер Бода, Петрин Аггер, Леонора Нильсен
Описание: Анна - 12-летняя девочка, живущая в маленькой рыбацкой деревне. Она на распутье своей жизни. Её окружение меняется, как и она.
Доп. информация: IMDb: 5.3/10
Датская короткометражка от исландского режиссера, снявшего:
Последняя ферма (2004)
Две птицы (2008)
Качество видео: DVDRip
Формат видео: AVI
Видео: 720x384 (1.88:1), 25 fps, DivX Codec 4.x ~2394 kbps avg, 0.35 bit/pixel
Аудио: 48 kHz, MPEG Layer 3, 2 ch, ~128.00 kbps avg
Формат субтитров: softsub (SRT)

MediaInfo

Общее
Полное имя : E:\Anna.2009.Runar.Runarsson\Anna.2009.Runar.Runarsson.avi
Формат : AVI
Формат/Информация : Audio Video Interleave
Размер файла : 624 Мбайт
Продолжительность : 36 м.
Общий поток : 2408 Кбит/сек
Видео
Идентификатор : 0
Формат : MPEG-4 Visual
Профиль формата : Simple@L1
Параметр BVOP формата : Нет
Параметр QPel формата : Нет
Параметр GMC формата : Без точки перехода
Параметр матрицы формата : Default (H.263)
Идентификатор кодека : DX50
Идентификатор кодека/Подсказка : DivX 5
Продолжительность : 36 м.
Битрейт : 2267 Кбит/сек
Ширина : 720 пикс.
Высота : 384 пикс.
Соотношение сторон : 1,875
Частота кадров : 25,000 кадр/сек
Цветовое пространство : YUV
Подвыборка цветности : 4:2:0
Битовая глубина : 8 бит
Тип развёртки : Прогрессивная
Метод сжатия : С потерями
Бит/(Пиксели*Кадры) : 0.328
Размер потока : 588 Мбайт (94%)
Библиотека кодирования : Lavc52.0.0
Аудио
Идентификатор : 1
Формат : MPEG Audio
Версия формата : Version 1
Профиль формата : Layer 3
Режим : Joint stereo
Расширение режима : MS Stereo
Идентификатор кодека : 55
Идентификатор кодека/Подсказка : MP3
Продолжительность : 36 м.
Вид битрейта : Постоянный
Битрейт : 128 Кбит/сек
Каналы : 2 канала
Частота : 48,0 КГц
Метод сжатия : С потерями
Размер потока : 33,2 Мбайт (5%)
Выравнивание : Разделение по промежуткам
Продолжительность промежутка : 24 мс. (0,60 видеокадр)
Время предзагрузки промежутка : 332 ms
Библиотека кодирования : LAME3.98

Скриншоты

[teatrix.ru].t4270.torrent 
Торрент: Зарегистрирован [ 2015-10-07 20:05 ] · D1AA536200232635F970F43D7630EE1CCF86CFAA

Скачать .torrent

Скачать

13 KB

Статус: проверено
Скачан: 0 раз
Размер: 624 MB
terms.php



Быстрый ответ

Имя:

      
Для отправки сообщений необходимо включить JavaScript
Показать сообщения:    

Текущее время: 09-Дек 08:49

Часовой пояс: UTC + 3


Вы можете начинать темы
Вы можете отвечать на сообщения
Вы не можете редактировать свои сообщения
Вы не можете удалять свои сообщения
Вы не можете голосовать в опросах
Вы не можете прикреплять файлы к сообщениям
Вы можете скачивать файлы