Пластиковый пакет / Plastic Bag (Рэмин Барани / Ramin Bahrani) (текст читает Вернер Херцог (Werner Herzog)) [2009, короткий метр, драма, DVDRip-AVC] AVO (dooctoor) + ENG + rus.sub (dooctoor)


Статистика раздачи [Обновить пиров]
Размер:  228 MB   |    Зарегистрирован:  1 год 2 месяца   |    Скачан:  0 раз

Полного источника не было: Никогда

 
   
 
 
 

[Цитировать]

Пластиковый пакет / Plastic Bag----- А где твой Рай? ------ Год выпуска: 2009
Страна: США
Жанр: короткий метр, драма
Продолжительность: 00:17:45
Перевод и адаптация: dooctoor aka Dr.Filin
Озвучка: любительская одноголосая (dooctoor aka Dr.Filin)
Оригинальная аудио дорожка: английская
Русские субтитры: есть (dooctoor aka Dr.Filin)
Режиссер:
Рэмин Барани / Ramin Bahrani
В ролях:
текст читает Вернер Херцог (Werner Herzog)
Описание от dooctoor:
Жизнь и необыкновенные приключения пластикового пакета, рассказанные голосом Вернера Херцога.
Философско-экологические размышления на тему Большого Тихоокеанского Мусороворота или может уже хватить засерать всё вокруг себя? 8.1/10 (356)СЭМПЛ-Доп. информация:


Фильм переводил на слух.
Это лучшее качество из доступных в сети.

ВАШИ КОММЕНТАРИИ И “СПАСИБЫ” ЯВЛЯЮТСЯ ДЛЯ МЕНЯ ИНДИКАТОРОМ "НУЖНОСТИ" МОИХ РАЗДАЧ, НЫНЕШНИХ И БУДУЩИХ
-
Качество: DVDRip-AVC
Формат: MKV
Видео кодек: H264
Аудио кодек: MP3
Видео: 704x400 23.98fps
Аудио#1: MPEG Audio Layer 3 48000Hz stereo VBR 4 (~ 128 kbps)[Russian (dooctoor aka Dr.Filin)]
Аудио#2: MPEG Audio Layer 3 48000Hz stereo VBR 4 (~ 128 kbps) [English]
Формат субтитров: softsub (SRT) внутри контейнера
Субтитры: UTF-8 [Russian, RUSSIAN_SUB (dooctoor aka Dr.Filin)]-

MI

Format : Matroska
File size : 228 MiB
Duration : 17mn 46s
Overall bit rate : 1 791 Kbps
Encoded date : UTC 2011-09-17 12:26:41
Writing application : mkvmerge v4.9.1 ('Ich will') сборка от Jul 11 2011 23:53:15
Writing library : libebml v1.2.1 + libmatroska v1.1.1
Video
ID : 1
Format : AVC
Format/Info : Advanced Video Codec
Format profile : High@L4.1
Format settings, CABAC : Yes
Format settings, ReFrames : 4 frames
Muxing mode : Header stripping
Codec ID : V_MPEG4/ISO/AVC
Duration : 17mn 46s
Bit rate : 1 600 Kbps
Width : 704 pixels
Height : 400 pixels
Display aspect ratio : 16:9
Frame rate : 23.976 fps
Color space : YUV
Chroma subsampling : 4:2:0
Bit depth : 8 bits
Scan type : Progressive
Bits/(Pixel*Frame) : 0.237
Stream size : 199 MiB (87%)
Writing library : x264 core 102 r1666kMod d058f37
Encoding settings : cabac=1 / ref=5 / deblock=1:0:0 / analyse=0x3:0x133 / me=umh / subme=7 / psy=1 / psy_rd=1.00:0.00 / mixed_ref=1 / me_range=16 / chroma_me=1 / trellis=1 / 8x8dct=1 / cqm=0 / deadzone=21,11 / fast_pskip=1 / chroma_qp_offset=-2 / threads=6 / sliced_threads=1 / slices=6 / nr=0 / decimate=1 / interlaced=0 / constrained_intra=0 / bframes=3 / b_pyramid=1 / b_adapt=1 / b_bias=0 / direct=3 / weightb=1 / open_gop=0 / weightp=2 / keyint=250 / keyint_min=25 / scenecut=40 / intra_refresh=0 / rc=2pass / mbtree=0 / bitrate=1600 / ratetol=1.0 / qcomp=0.60 / qpmin=10 / qpmax=51 / qpstep=4 / cplxblur=20.0 / qblur=0.5 / ip_ratio=1.40 / pb_ratio=1.30 / aq=1:1.00
Language : English
Audio #1
ID : 2
Format : MPEG Audio
Format version : Version 1
Format profile : Layer 3
Mode : Joint stereo
Mode extension : MS Stereo
Muxing mode : Header stripping
Codec ID : A_MPEG/L3
Codec ID/Hint : MP3
Duration : 17mn 46s
Bit rate mode : Variable
Bit rate : 103 Kbps
Minimum bit rate : 32.0 Kbps
Channel(s) : 2 channels
Sampling rate : 48.0 KHz
Compression mode : Lossy
Stream size : 13.1 MiB (6%)
Title : VO (dooctoor aka Dr.Filin)
Writing library : LAME3.98r
Encoding settings : -m j -V 4 -q 0 -lowpass 17.5 --vbr-new -b 32
Language : Russian
Audio #2
ID : 3
Format : MPEG Audio
Format version : Version 1
Format profile : Layer 3
Mode : Joint stereo
Mode extension : MS Stereo
Muxing mode : Header stripping
Codec ID : A_MPEG/L3
Codec ID/Hint : MP3
Duration : 17mn 46s
Bit rate mode : Variable
Bit rate : 85.7 Kbps
Minimum bit rate : 32.0 Kbps
Channel(s) : 2 channels
Sampling rate : 48.0 KHz
Compression mode : Lossy
Stream size : 10.9 MiB (5%)
Title : English (Werner Herzog)
Writing library : LAME3.98r
Encoding settings : -m j -V 4 -q 0 -lowpass 17.5 --vbr-new -b 32
Language : English
Text
ID : 4
Format : UTF-8
Codec ID : S_TEXT/UTF8
Codec ID/Info : UTF-8 Plain Text
Title : Russian (dooctoor aka Dr.Filin)
Language : Russian

-

СКРИНШОТЫ

-
[teatrix.ru].t4272.torrent 
Торрент: Зарегистрирован [ 2015-10-07 20:05 ] · 3783D52847613F66D45590B883FABCBFB9E0C59B

Скачать .torrent

Скачать

18 KB

Статус: проверено
Скачан: 0 раз
Размер: 228 MB
terms.php



Быстрый ответ

Имя:

      
Для отправки сообщений необходимо включить JavaScript
Показать сообщения:    

Текущее время: 11-Дек 05:22

Часовой пояс: UTC + 3


Вы можете начинать темы
Вы можете отвечать на сообщения
Вы не можете редактировать свои сообщения
Вы не можете удалять свои сообщения
Вы не можете голосовать в опросах
Вы не можете прикреплять файлы к сообщениям
Вы можете скачивать файлы