Ноль за поведение / Zéro de conduite: Jeunes diables au college (Жан Виго / Jean Vigo) [720p] [1933, короткометражка, драма, комедия, BDRip] MVO + VO + Orig + Sub (Rus, Eng)


Статистика раздачи [Обновить пиров]
Размер:  3.13 GB   |    Зарегистрирован:  1 год 1 месяц   |    Скачан:  0 раз

Полного источника не было: Никогда

 
   
 
 
 

[Цитировать]

Ноль за поведение / Zéro de conduite: Jeunes diables au collegeГод выпуска: 1933
Страна: Франция
Жанр: короткометражка, драма, комедия
Продолжительность: 00:44:28
Перевод:
1. Многоголосный
2. Одноголосный
Cубтитры: русские, английские
Навигация по главам: есть
Режиссер: Жан Виго / Jean Vigo
Сценарий: Жан Виго / Jean Vigo
Продюсер: Жак-Луи Нунез / Jacques-Louis Nounez, Жан Виго / Jean Vigo
Оператор: Борис Кауфман / Boris Kaufman
Композитор: Морис Жобер / Maurice Jaubert
В ролях: Жан Дасте (Surveillant Huguet), Роберт Ле Флон (Surveillant Pète-Sec), Ду Веррон (Surveillant-Général Bec-de-Gaz), Delphin (Principal du Collège), Леон Ларив (Professeur), Мадам Эмиль (Mère Haricot), Луи де Гонзаг (Préfet), Рафаэль Дилижан (Pompier), Луи Лефевр (Caussat), Гилберт Прюшон (Colin), Коко Гольстейн (Bruel), Жерар Де Бедарьё (Tabard)-Мировая премьера: 7 апреля 1933-Описание: Ноль за поведение означает, что не отпускают домой в воскресенье - самое суровое наказание в закрытом, строгом колледже для мальчиков. Ребята объявляют войну воспитателям и устраивают невероятные выходки.-Рейтинг
kinopoisk.ru: 7.599 (198)
imdb.com: 7.60 (2 371)-Качество: BDRip
Исходник: BD-Remux for HDClub
Формат: Matroska
Видеокодек: AVC
Аудиокодек: AC3
Видео: 844x720 (1.172); 9299 Kbps; 23,976 fps
Аудио №1: Russian; AC3; 192 Kbps; CBR; 2 ch; Многоголосный
Аудио №2: Russian; AC3; 192 Kbps; CBR; 2 ch; Одноголосный
Аудио №3: French; AC3; 192 Kbps; CBR; 1 ch
Аудио №4: English; AC3; 192 Kbps; CBR; 1 ch; Commentary by Michael Temple
Субтитры №1: Russian
Субтитры №2: English-

rip VS source





-

MI

General
Unique ID : 183008462648653377549054147038140590518 (0x89AE25D82144FC84880D53EAFE1669B6)
Complete name : Zero.de.conduite.Jeunes.diables.au.college.1933.720p.BluRay.2xRus.Fre-Skazhutin.mkv
Format : Matroska
Format version : Version 2
File size : 3.13 GiB
Duration : 44mn 28s
Overall bit rate : 10.1 Mbps
Encoded date : UTC 2011-09-17 11:41:01
Writing application : mkvmerge v4.9.1 ('Ich will') built on Jul 11 2011 23:53:15
Writing library : libebml v1.2.1 + libmatroska v1.1.1
Attachment : Yes / Yes
Video
ID : 1
Format : AVC
Format/Info : Advanced Video Codec
Format profile : High@L4.1
Format settings, CABAC : Yes
Format settings, ReFrames : 12 frames
Codec ID : V_MPEG4/ISO/AVC
Duration : 44mn 28s
Bit rate : 9 103 Kbps
Width : 844 pixels
Height : 720 pixels
Display aspect ratio : 1.172
Frame rate : 23.976 fps
Color space : YUV
Chroma subsampling : 4:2:0
Bit depth : 8 bits
Scan type : Progressive
Bits/(Pixel*Frame) : 0.625
Stream size : 2.83 GiB (90%)
Writing library : x264 core 116 r2074 2641b9e
Encoding settings : cabac=1 / ref=12 / deblock=1:-3:-3 / analyse=0x3:0x113 / me=umh / subme=11 / psy=1 / psy_rd=0.90:0.00 / mixed_ref=1 / me_range=24 / chroma_me=1 / trellis=2 / 8x8dct=1 / cqm=0 / deadzone=21,11 / fast_pskip=0 / chroma_qp_offset=-2 / threads=12 / sliced_threads=0 / nr=0 / decimate=1 / interlaced=0 / bluray_compat=0 / constrained_intra=0 / bframes=15 / b_pyramid=2 / b_adapt=2 / b_bias=0 / direct=3 / weightb=1 / open_gop=0 / weightp=2 / keyint=250 / keyint_min=23 / scenecut=40 / intra_refresh=0 / rc_lookahead=60 / rc=crf / mbtree=0 / crf=17.5 / qcomp=0.70 / qpmin=0 / qpmax=69 / qpstep=4 / vbv_maxrate=50000 / vbv_bufsize=62500 / crf_max=0.0 / nal_hrd=none / ip_ratio=1.40 / pb_ratio=1.30 / aq=1:0.80
Language : French
Matrix coefficients : BT.709-5, BT.1361, IEC 61966-2-4 709, SMPTE RP177
Audio #1
ID : 2
Format : AC-3
Format/Info : Audio Coding 3
Mode extension : CM (complete main)
Codec ID : A_AC3
Duration : 44mn 28s
Bit rate mode : Constant
Bit rate : 192 Kbps
Channel(s) : 2 channels
Channel positions : Front: L R
Sampling rate : 48.0 KHz
Bit depth : 16 bits
Compression mode : Lossy
Stream size : 61.1 MiB (2%)
Title : MVO
Language : Russian
Audio #2
ID : 3
Format : AC-3
Format/Info : Audio Coding 3
Mode extension : CM (complete main)
Codec ID : A_AC3
Duration : 44mn 28s
Bit rate mode : Constant
Bit rate : 192 Kbps
Channel(s) : 2 channels
Channel positions : Front: L R
Sampling rate : 48.0 KHz
Bit depth : 16 bits
Compression mode : Lossy
Stream size : 61.1 MiB (2%)
Title : VO
Language : Russian
Audio #3
ID : 4
Format : AC-3
Format/Info : Audio Coding 3
Mode extension : CM (complete main)
Codec ID : A_AC3
Duration : 44mn 28s
Bit rate mode : Constant
Bit rate : 192 Kbps
Channel(s) : 1 channel
Channel positions : Front: C
Sampling rate : 48.0 KHz
Bit depth : 16 bits
Compression mode : Lossy
Stream size : 61.1 MiB (2%)
Title : FRE
Language : French
Audio #4
ID : 5
Format : AC-3
Format/Info : Audio Coding 3
Mode extension : CM (complete main)
Codec ID : A_AC3
Duration : 44mn 28s
Bit rate mode : Constant
Bit rate : 192 Kbps
Channel(s) : 1 channel
Channel positions : Front: C
Sampling rate : 48.0 KHz
Bit depth : 16 bits
Compression mode : Lossy
Stream size : 61.1 MiB (2%)
Title : Commentary
Language : English
Text #1
ID : 6
Format : UTF-8
Codec ID : S_TEXT/UTF8
Codec ID/Info : UTF-8 Plain Text
Language : Russian
Text #2
ID : 7
Format : UTF-8
Codec ID : S_TEXT/UTF8
Codec ID/Info : UTF-8 Plain Text
Language : English
Menu
00:00:00.000 : en:Chapter 1
00:02:02.913 : en:Chapter 2
00:07:24.652 : en:Chapter 3
00:11:21.888 : en:Chapter 4
00:13:41.237 : en:Chapter 5
00:16:59.393 : en:Chapter 6
00:20:28.518 : en:Chapter 7
00:25:55.344 : en:Chapter 8
00:27:30.273 : en:Chapter 9
00:31:44.235 : en:Chapter 10
00:40:53.242 : en:Chapter 11

-
x264 logКод:y4m [info]: 844x720p 1:1 @ 24000/1001 fps (cfr)
x264 [info]: using SAR=1/1
x264 [info]: using cpu capabilities: MMX2 SSE2Fast SSSE3 FastShuffle SSE4.2 AVX
x264 [info]: profile High, level 4.1
x264 [info]: frame I:326 Avg QP:17.36 size: 89555
x264 [info]: frame P:10718 Avg QP:18.40 size: 62370
x264 [info]: frame B:52936 Avg QP:20.81 size: 45421
x264 [info]: consecutive B-frames: 1.0% 0.4% 2.0% 8.6% 12.6% 45.5% 6.2% 4.4% 3.4% 3.5% 3.4% 4.9% 1.5% 0.9% 0.9% 0.9%
x264 [info]: mb I I16..4: 2.1% 88.9% 9.0%
x264 [info]: mb P I16..4: 0.2% 38.9% 1.5% P16..4: 18.9% 26.1% 11.8% 0.0% 0.0% skip: 2.7%
x264 [info]: mb B I16..4: 0.0% 17.6% 0.2% B16..8: 34.7% 24.5% 7.4% direct:11.2% skip: 4.4% L0:50.3% L1:37.4% BI:12.4%
x264 [info]: 8x8 transform intra:97.6% inter:63.3%
x264 [info]: direct mvs spatial:100.0% temporal:0.0%
x264 [info]: coded y,uvDC,uvAC intra: 99.2% 0.0% 0.0% inter: 76.2% 0.0% 0.0%
x264 [info]: i16 v,h,dc,p: 60% 12% 13% 16%
x264 [info]: i8 v,h,dc,ddl,ddr,vr,hd,vl,hu: 10% 7% 13% 10% 13% 12% 11% 11% 12%
x264 [info]: i4 v,h,dc,ddl,ddr,vr,hd,vl,hu: 8% 7% 9% 9% 15% 14% 13% 12% 12%
x264 [info]: i8c dc,h,v,p: 92% 8% 0% 0%
x264 [info]: Weighted P-Frames: Y:37.2% UV:0.0%
x264 [info]: ref P L0: 29.3% 9.7% 13.6% 9.9% 7.8% 6.5% 5.7% 3.9% 3.5% 3.2% 3.0% 2.8% 1.2% 0.0%
x264 [info]: ref B L0: 50.2% 14.8% 9.8% 5.9% 4.9% 4.2% 3.7% 2.5% 2.3% 1.3% 0.4%
x264 [info]: ref B L1: 85.8% 14.2%
x264 [info]: kb/s:9299.85
encoded 63980 frames, 4.86 fps, 9299.85 kb/s
[teatrix.ru].t4273.torrent 
Торрент: Зарегистрирован [ 2015-10-07 20:05 ] · 1CC800790CE945A57DDA070BFF348A6584492B00

Скачать .torrent

Скачать

32 KB

Статус: проверено
Скачан: 0 раз
Размер: 3.13 GB
terms.php



Быстрый ответ

Имя:

      
Для отправки сообщений необходимо включить JavaScript
Показать сообщения:    

Текущее время: 07-Дек 00:46

Часовой пояс: UTC + 3


Вы можете начинать темы
Вы можете отвечать на сообщения
Вы не можете редактировать свои сообщения
Вы не можете удалять свои сообщения
Вы не можете голосовать в опросах
Вы не можете прикреплять файлы к сообщениям
Вы можете скачивать файлы