Элегия дороги / Elegy of a Voyage (Александр Сокуров/Alexander Sokurov) [2001, Россия, Франция, Нидерланды, фэнтези, драма, DVDRip]


Статистика раздачи [Обновить пиров]
Размер:  306 MB   |    Зарегистрирован:  1 год 1 месяц   |    Скачан:  0 раз

Полного источника не было: Никогда

 
   
 
 
 

[Цитировать]

Элегия дороги / Elegy of a Voyage
Страна: Россия, Франция, Нидерланды
Жанр: фэнтези, драма
Год выпуска: 2001
Продолжительность: 0:47:19
Перевод: Не требуется
Cубтитры: нет
Режиссер: Александр Сокуров/Alexander Sokurov
Описание: «Я их знал и рядом с ними как будто жил… И кто-то умирал, и я помню – мы тогда плакали, мы боялись, что нас становится все меньше и меньше… Тогда мы дома наши стали переносить ближе к дороге. Это сделали все, потому что все хотели жить рядом друг с другом и никто не хотел жить отдельно, только я не помню, помогло ли это нам».Александр Сокуров (из авторского текста).В этой картине художественное преображение объектов реальности достигает предела авторского внедрения в эту реальность. Мысль и слово автора предвосхищают появление зримых образов, словно выкристализованных из мелькающих впечатлений действительности и выстроенных в изысканный и строгий, фантастеский и достоверный ряд.
В этом путешествии отчуждены имена собственные, как географических пунктов, так и встречаемых людей: ведь не нужны пограничные заставы и паспорта освобожденной мечте – мечте о безграничности пространства и времени. Образы Родины: церковный придел, где крестят младенца в окружении сумрачных лиц, родимые пейзажи «края заброшенного», та самая погранзона – смыкаются с панорамами сверкающего огнями ночного западного города, с портретом говорящего на чужом языке молодого человека, улыбающегося даже при невеселом воспоминании.
И в пейзажах, и в портретах нам открываются не столько приметы сегодняшнего дня, сколько неизменяемые родовые черты разных истоков человеческого бытия. Лишь воля режисера ведет нас за собой к единому центру. Проникая вместе с ним в безлюдный ночной музей, мы в старинных голландских картинах XVI века разглядываем и узнаем ускользающее тепло жизни и наше вечное стремление в путь, чтобы возвратиться друг к другу. Искусство дает нам едиственный шанс этого круговорота.
Качество видео: DVDRip
Формат видео: AVI
Видео: 702 Кбит/сек, 576*416(1,385), в 24.975 кадр/сек, MPEG-4 Visual (XviD)(Simple@L3)
Аудио: 192 Кбит/сек, 48.0КГц, 16 бит, 2 канала, AC-3

MediaInfo

Общее
Полное имя :Элегия дороги.avi
Формат : AVI
Формат/Информация : Audio Video Interleave
Размер файла : 306 Мбайт
Продолжительность : 47 м.
Общий поток : 904 Кбит/сек
Программа кодирования : VirtualDubMod 1.5.10.2 (build 2540/release)
Библиотека кодирования : VirtualDubMod build 2540/release
Видео
Идентификатор : 0
Формат : MPEG-4 Visual
Профиль формата : Simple@L3
Параметр BVOP формата : Нет
Параметр QPel формата : Нет
Параметр GMC формата : Без точки перехода
Параметр матрицы формата : Default (H.263)
Идентификатор кодека : XVID
Идентификатор кодека/Подсказка : XviD
Продолжительность : 47 м.
Битрейт : 702 Кбит/сек
Ширина : 576 пикс.
Высота : 416 пикс.
Соотношение сторон : 1,385
Частота кадров : 24,975 кадр/сек
Цветовое пространство : YUV
Подвыборка цветности : 4:2:0
Битовая глубина : 8 бит
Тип развёртки : Прогрессивная
Метод сжатия : С потерями
Бит/(Пиксели*Кадры) : 0.117
Размер потока : 238 Мбайт (78%)
Библиотека кодирования : XviD 1.0.3 (UTC 2004-12-20)
Аудио
Идентификатор : 1
Формат : AC-3
Формат/Информация : Audio Coding 3
Расширение режима : CM (complete main)
Идентификатор кодека : 2000
Продолжительность : 47 м.
Вид битрейта : Постоянный
Битрейт : 192 Кбит/сек
Каналы : 2 канала
Расположение каналов : Front: L R
Частота : 48,0 КГц
Битовая глубина : 16 бит
Метод сжатия : С потерями
Размер потока : 65,0 Мбайт (21%)
Выравнивание : Разделение по промежуткам
Продолжительность промежутка : 40 мс. (1,00 видеокадр)
Время предзагрузки промежутка : 500 ms

Скриншот c названием фильма

Скриншоты

[teatrix.ru].t4274.torrent 
Торрент: Зарегистрирован [ 2015-10-07 20:05 ] · C57F93ADB447EA1ED5768EB1D1F2394A0C3B7CE6

Скачать .torrent

Скачать

12 KB

Статус: проверено
Скачан: 0 раз
Размер: 306 MB
terms.php



Быстрый ответ

Имя:

      
Для отправки сообщений необходимо включить JavaScript
Показать сообщения:    

Текущее время: 03-Дек 14:39

Часовой пояс: UTC + 3


Вы можете начинать темы
Вы можете отвечать на сообщения
Вы не можете редактировать свои сообщения
Вы не можете удалять свои сообщения
Вы не можете голосовать в опросах
Вы не можете прикреплять файлы к сообщениям
Вы можете скачивать файлы