Оса / Wasp (Андреа Арнольд / Andrea Arnold) [2003, Великобритания, короткометражка, драма DVDRip] Sub rus


Статистика раздачи [Обновить пиров]
Размер:  300 MB   |    Зарегистрирован:  1 год 2 месяца   |    Скачан:  1 раз

Полного источника не было: 1 месяц 22 дня

 
   
 
 
 

[Цитировать]

ОсаГод выпуска: 2003
Страна: Великобритания
Жанр: короткометражка, драма
Продолжительность: 00:24:11
Перевод: Субтитры (Nike Freman)
Cубтитры: русские
Режиссер: Андреа Арнольд / Andrea Arnold
Сценарий: Андреа Арнольд / Andrea Arnold
Продюсер: Наташа Марш, Кэролайн Купер, Ив Харрисон
Оператор: Робби Райан
В ролях: Натали Пресс, Дэнни Дайер, Джоди Митчел, Молли Гриффитс, Кейтлин Рейнор, Дэнни Дэйли,-Описание: Действие фильма разворачивается в кентском Дартфорде. Зои, неустроенная мать четверых детей, неожиданно встречает своего бывшего бойфренда Дэвида. Он приглашает ее на свидание - первое для нее за последние несколько лет. Чтобы не отпугнуть Дэвида, она объясняет ему, что сидит с детьми подруги ...
Дополнительная информация:
Оскар - 2005 за лучший короткометражный фильм-Рейтинг
kinopoisk.ru: 7.533 (22)
imdb.com: 7.4 (806)
Релиз группы
-Качество: DVDRip
Формат: AVI
Видео: XviD; 704x400 (16:9); 1503 Kbps; 25 fps; 0,213 bpp
Аудио: AC3; 224 Kbps; CBR; 2 ch; 48.0 KHz-

MI

Complete name : C:\Documents and Settings\Admin\Мои документы\Downloads\Wasp\Andrea Arnold-Wasp (2003).avi
Format : AVI
Format/Info : Audio Video Interleave
File size : 300 MiB
Duration : 24mn 11s
Overall bit rate : 1 737 Kbps
Writing application : VirtualDubMod 1.5.10.2 (build 2540/release)
Writing library : VirtualDubMod build 2540/release
Video
ID : 0
Format : MPEG-4 Visual
Format profile : Advanced Simple@L5
Format settings, BVOP : 2
Format settings, QPel : No
Format settings, GMC : No warppoints
Format settings, Matrix : Default (H.263)
Codec ID : XVID
Codec ID/Hint : XviD
Duration : 24mn 11s
Bit rate : 1 503 Kbps
Width : 704 pixels
Height : 400 pixels
Display aspect ratio : 16:9
Frame rate : 25.000 fps
Color space : YUV
Chroma subsampling : 4:2:0
Bit depth : 8 bits
Scan type : Progressive
Compression mode : Lossy
Bits/(Pixel*Frame) : 0.213
Stream size : 260 MiB (87%)
Writing library : XviD 1.1.2 (UTC 2006-11-01)
Audio
ID : 1
Format : AC-3
Format/Info : Audio Coding 3
Mode extension : CM (complete main)
Codec ID : 2000
Duration : 24mn 10s
Bit rate mode : Constant
Bit rate : 224 Kbps
Channel(s) : 2 channels
Channel positions : Front: L R
Sampling rate : 48.0 KHz
Bit depth : 16 bits
Compression mode : Lossy
Stream size : 38.7 MiB (13%)
Alignment : Split accross interleaves
Interleave, duration : 40 ms (1.00 video frame)
Interleave, preload duration : 500 ms

Скриншоты










[teatrix.ru].t4276.torrent 
Торрент: Зарегистрирован [ 2015-10-07 20:05 ] · 00D472F8D659577F0CABD828AEEE6C5BB08FD4F7

Скачать .torrent

Скачать

12 KB

Статус: проверено
Скачан: 1 раз
Размер: 300 MB
terms.php



Быстрый ответ

Имя:

      
Для отправки сообщений необходимо включить JavaScript
Показать сообщения:    

Текущее время: 11-Дек 03:17

Часовой пояс: UTC + 3


Вы можете начинать темы
Вы можете отвечать на сообщения
Вы не можете редактировать свои сообщения
Вы не можете удалять свои сообщения
Вы не можете голосовать в опросах
Вы не можете прикреплять файлы к сообщениям
Вы можете скачивать файлы