Маленькая девочка, которая продала солнце / Маленькая продавщица солнца / La petite vendeuse de soleil / The little girl who sold the sun (Джибрил Диоп Мамбети / Djibril Diop Mambéty) [1999, Сенегал, Франция, драма, DVDRip] Sub rus + original fr


Статистика раздачи [Обновить пиров]
Размер:  347 MB   |    Зарегистрирован:  1 год 2 месяца   |    Скачан:  0 раз

Полного источника не было: Никогда

 
   
 
 
 

[Цитировать]

Маленькая девочка, которая продала солнце
La petite vendeuse de soleil
-Страна: Сенегал, Франция
Жанр: драма
Год выпуска: 1999
Продолжительность: 00:42:44
Перевод: Субтитры (by sonnyb) Блог
Cубтитры: русские
Оригинальная аудиодорожка: французский
Режиссер: Джибрил Диоп Мамбети / Djibril Diop Mambéty
В ролях: Лисса Балера, Амината Фалл, Тайеру Мбайе
Описание: Мы последуем за маленькой девочкой, которая едет из своей деревни в Дакар. У нее нет одной ноги и единственное, что она может делать - просить милостыню на улице. Однажды она видит мальчиков, которые продают национальную газету "Солеил". И хотя девочки таким не занимаются, она берется убедить тех, кто этим руководит в обратном. Но сможет ли она выжить в жестоком мире, где есть только агрессия?
Доп. информация:
Газета "Солеил" с французского "солнце".
IMDb: 7.4/10
Качество видео: DVDRip
Формат видео: AVI
Видео: 592x320 (1.85:1), 25 fps, DivX MPEG-4 Low-Motion ~962 kbps avg, 0.20 bit/pixel
Аудио: 48 kHz, MPEG Layer 3, 2 ch, ~157.23 kbps avg
Формат субтитров: softsub (SRT)

MediaInfo

Общее
Полное имя : E:\Little.girl.who.sold.the.Sun.1999\La petite vendeuse de soleil - The little girl who sold the sun (Djibril Diop Mambety, 1999).avi
Формат : AVI
Формат/Информация : Audio Video Interleave
Размер файла : 347 Мбайт
Продолжительность : 42 м.
Общий поток : 1134 Кбит/сек
Программа кодирования : Nandub v1.0rc2
Библиотека кодирования : Nandub build 1852/release
Видео
Идентификатор : 0
Формат : MPEG-4 Visual
Идентификатор кодека : DIV3
Идентификатор кодека/Подсказка : DivX 3 Low
Продолжительность : 42 м.
Битрейт : 963 Кбит/сек
Ширина : 592 пикс.
Высота : 320 пикс.
Соотношение сторон : 1,850
Частота кадров : 25,000 кадр/сек
Цветовое пространство : YUV
Подвыборка цветности : 4:2:0
Битовая глубина : 8 бит
Метод сжатия : С потерями
Бит/(Пиксели*Кадры) : 0.203
Размер потока : 294 Мбайт (85%)
Аудио
Идентификатор : 1
Формат : MPEG Audio
Версия формата : Version 1
Профиль формата : Layer 3
Режим : Joint stereo
Идентификатор кодека : 55
Идентификатор кодека/Подсказка : MP3
Продолжительность : 42 м.
Вид битрейта : Переменный
Битрейт : 160 Кбит/сек
Каналы : 2 канала
Частота : 48,0 КГц
Метод сжатия : С потерями
Размер потока : 48,1 Мбайт (14%)
Выравнивание : Соединение по промежуткам
Продолжительность промежутка : 24 мс. (0,60 видеокадр)
Время предзагрузки промежутка : 481 ms
Библиотека кодирования : LAME3.92
Настройки программы : -m j -V 4 -q 2 -lowpass 18 --abr 160
[teatrix.ru].t4279.torrent 
Торрент: Зарегистрирован [ 2015-10-07 20:05 ] · 8443C34DCDE4A34F59588AF62CE859FF686A9FE7

Скачать .torrent

Скачать

14 KB

Статус: проверено
Скачан: 0 раз
Размер: 347 MB
terms.php



Быстрый ответ

Имя:

      
Для отправки сообщений необходимо включить JavaScript
Показать сообщения:    

Текущее время: 08-Дек 01:17

Часовой пояс: UTC + 3


Вы можете начинать темы
Вы можете отвечать на сообщения
Вы не можете редактировать свои сообщения
Вы не можете удалять свои сообщения
Вы не можете голосовать в опросах
Вы не можете прикреплять файлы к сообщениям
Вы можете скачивать файлы