Сэмюэл Беккет - Что Где / Beckett On Film - What Where (Дэмиен Одоннелл / Damien O\'Donnell) [2001, Ирландия, Короткий метр, DVDRip] Sub rus + original eng


Статистика раздачи [Обновить пиров]
Размер:  81 MB   |    Зарегистрирован:  1 год 2 месяца   |    Скачан:  0 раз

Полного источника не было: Никогда

 
   
 
 
 

[Цитировать]

Сэмюэл Беккет - Что Где / Beckett On Film - What Where
Страна: Ирландия
Жанр: Короткий метр/Артхаус
Год выпуска: 2001
Продолжительность: 00:12:10
Перевод: Субтитры Доп.инфо о переводе savasablin
Cубтитры: русские
Оригинальная аудиодорожка: английский
Режиссер: Дэмиен Одоннелл / Damien O'Donnell
В ролях: Шон Макгинли, Гэрри Льюис
Описание: Экранизация пьессы "Что Где" великого ирландско-французского писателя и драматурга Сэмьюэля Беккета. Бам, один из пятерых "оставшихся" пытается выяснить у четверых остальных, во-первых "Что", а во вторых, "Где", последывательно замучивая товарищей до смерти.
Качество видео: DVDRip
Формат видео: AVI
Видео: XVID, 16:9, 25.000 fps, 624x352 pixels,759 Kbps
Аудио: MPEG Audio,48.0 KHz, 163 Kbps, 2 channels
Формат субтитров: softsub (SRT)

MediaInfo

General
Complete name : /users/sava/Movies/EKRANIZACII/Beckett on Film/1.19 What Where/1.19 What Where.avi
Format : AVI
Format/Info : Audio Video Interleave
File size : 81.4 MiB
Duration : 12mn 10s
Overall bit rate : 935 Kbps
Writing application : Nandub v1.0rc2
Writing library : Nandub build 1852/release
Video
ID : 0
Format : MPEG-4 Visual
Format profile : Simple@L3
Format settings, BVOP : 2
Format settings, QPel : No
Format settings, GMC : No warppoints
Format settings, Matrix : Custom
Codec ID : XVID
Codec ID/Hint : XviD
Duration : 12mn 10s
Bit rate : 759 Kbps
Width : 624 pixels
Height : 352 pixels
Display aspect ratio : 16:9
Frame rate : 25.000 fps
Color space : YUV
Chroma subsampling : 4:2:0
Bit depth : 8 bits
Scan type : Progressive
Compression mode : Lossy
Bits/(Pixel*Frame) : 0.138
Stream size : 66.1 MiB (81%)
Writing library : XviD 0.0.09 (UTC 2003-03-25)
Audio
ID : 1
Format : MPEG Audio
Format version : Version 1
Format profile : Layer 3
Mode : Joint stereo
Mode extension : MS Stereo
Codec ID : 55
Codec ID/Hint : MP3
Duration : 12mn 10s
Bit rate mode : Variable
Bit rate : 163 Kbps
Minimum bit rate : 32.0 Kbps
Channel(s) : 2 channels
Sampling rate : 48.0 KHz
Compression mode : Lossy
Stream size : 14.2 MiB (17%)
Alignment : Aligned on interleaves
Interleave, duration : 24 ms (0.60 video frame)
Interleave, preload duration : 547 ms
Writing library : LAME3.93
Encoding settings : -m j -V 2 -q 2 -lowpass 19 --vbr-old -b 32

Скриншоты



[teatrix.ru].t4283.torrent 
Торрент: Зарегистрирован [ 2015-10-07 20:05 ] · 315BD8C41CDCB5A2409E37793DF010A1CAA33726

Скачать .torrent

Скачать

13 KB

Статус: проверено
Скачан: 0 раз
Размер: 81 MB
terms.php



Быстрый ответ

Имя:

      
Для отправки сообщений необходимо включить JavaScript
Показать сообщения:    

Текущее время: 11-Дек 16:47

Часовой пояс: UTC + 3


Вы можете начинать темы
Вы можете отвечать на сообщения
Вы не можете редактировать свои сообщения
Вы не можете удалять свои сообщения
Вы не можете голосовать в опросах
Вы не можете прикреплять файлы к сообщениям
Вы можете скачивать файлы