Дикий запад / Far west (Паскаль-Алекс Винсент / Pascal-Alex Vincent) [2003, Франция, Комедия, Короткий метр, Гей-тема, DVDRip] VO


Статистика раздачи [Обновить пиров]
Размер:  170 MB   |    Зарегистрирован:  1 год 2 месяца   |    Скачан:  1 раз

Полного источника не было: 3 месяца 7 дней

 
   
 
 
 

[Цитировать]

Дикий запад / Far west
Страна: Франция
Жанр: Комедия, Короткий метр, Гей-тема
Год выпуска: 2003
Продолжительность: 00:17:10
Перевод: Любительский (одноголосый закадровый)|| Перевод: JustForSex; озвучка: Василий Кошкин.
Cубтитры: нет
Режиссер: Паскаль-Алекс Винсент / Pascal-Alex Vincent
В ролях: Жюльен Готье, Жан Аас, Жиль Гуиллен, Тони Гранжер, Алексис Михалик, Себастьен Шарль и др.
Описание: После смерти своей бабушки Рики перестал ездить к своему деду на ферму. Спустя некоторое время, мама Рики просит его снова навестить деда. И без того накаленный конфликт между внуком и дедом обостряется, когда на ферму приезжают друзья Рики.
Сэмпл: http://multi-up.com/539122
Качество видео: DVDRip (взят из сети)
Формат видео: AVI
Видео: XviD, 624x384, 1.625, 25.000 fps, 1 182 Kbps
Аудио: MP3, 44.1 KHz, 192 Kbps, 2 channels

MediaInfo

General
Complete name : D:\ВИДЕО\На торрент\Far West rus.avi
Format : AVI
Format/Info : Audio Video Interleave
File size : 170 MiB
Duration : 17mn 10s
Overall bit rate : 1 384 Kbps
Writing application : VirtualDubMod 1.5.10.2 (build 2542/release)
Writing library : VirtualDubMod build 2542/release
Video
ID : 0
Format : MPEG-4 Visual
Format profile : Advanced Simple@L5
Format settings, BVOP : 1
Format settings, QPel : No
Format settings, GMC : No warppoints
Format settings, Matrix : Default (H.263)
Muxing mode : Packed bitstream
Codec ID : XVID
Codec ID/Hint : XviD
Duration : 17mn 10s
Bit rate : 1 182 Kbps
Width : 624 pixels
Height : 384 pixels
Display aspect ratio : 1.625
Frame rate : 25.000 fps
Color space : YUV
Chroma subsampling : 4:2:0
Bit depth : 8 bits
Scan type : Progressive
Compression mode : Lossy
Bits/(Pixel*Frame) : 0.197
Stream size : 145 MiB (85%)
Writing library : XviD 63
Audio
ID : 1
Format : MPEG Audio
Format version : Version 1
Format profile : Layer 3
Codec ID : 55
Codec ID/Hint : MP3
Duration : 17mn 10s
Bit rate mode : Constant
Bit rate : 192 Kbps
Channel(s) : 2 channels
Sampling rate : 44.1 KHz
Compression mode : Lossy
Stream size : 23.6 MiB (14%)
Alignment : Split accross interleaves
Interleave, duration : 40 ms (1.00 video frame)
Interleave, preload duration : 500 ms

Скриншот c названием фильма

Скриншоты


[teatrix.ru].t4286.torrent 
Торрент: Зарегистрирован [ 2015-10-07 20:05 ] · F4678DB3B667266948DB3942832DA55216FD9761

Скачать .torrent

Скачать

14 KB

Статус: проверено
Скачан: 1 раз
Размер: 170 MB
terms.php



Быстрый ответ

Имя:

      
Для отправки сообщений необходимо включить JavaScript
Показать сообщения:    

Текущее время: 11-Дек 11:02

Часовой пояс: UTC + 3


Вы можете начинать темы
Вы можете отвечать на сообщения
Вы не можете редактировать свои сообщения
Вы не можете удалять свои сообщения
Вы не можете голосовать в опросах
Вы не можете прикреплять файлы к сообщениям
Вы можете скачивать файлы