Класс-концерт для хора и фортепиано / Class-concert for chorus and piano (Павел Ходнев) [2011, РФ, к/м, драма, HDRip] original rus


Статистика раздачи [Обновить пиров]
Размер:  401 MB   |    Зарегистрирован:  1 год 1 месяц   |    Скачан:  0 раз

Полного источника не было: Никогда

 
   
 
 
 

[Цитировать]

Класс-концерт для хора и фортепиано- -Страна: РФ
Жанр: к/м, драма
Год выпуска: 2011
Продолжительность: 12:37
-Перевод: Не требуется
Cубтитры: нет
Оригинальная аудиодорожка: русский
-Режиссер: Павел Ходнев
Оператор: Павел Фильков
Художник: Мария Пасичник

В ролях: Саша Озеров, Саша Пивнев, Азиза Ахтимова, Татьяна Скочнягина, Владимир Павлов
Описание: Одиннадцатилетний Дима совершает первый в жизни мужской поступок - дерется за честь женщины с лучшим другом, - тот назвал её воблой.-Качество видео: HDRip
Формат видео: MP4
Видео: mp42, 1280*720, 16:9, 25,000, 4188 kbps, 0.182 b/p*f
Аудио: AAC, 48 khz, 253 kbps, 2 channels

MediaInfo

General
Complete name : I:\Bugaga\пашечка\ккхф\klass_koncert_1280_stereo.mp4
Format : MPEG-4
Format profile : Base Media / Version 2
Codec ID : mp42
File size : 401 MiB
Duration : 12mn 36s
Overall bit rate : 4 445 Kbps
Encoded date : UTC 2011-06-23 21:42:06
Tagged date : UTC 2011-06-23 21:42:06
©TIM : 00:00:00:00
©TSC : 25
©TSZ : 1
Video
ID : 1
Format : AVC
Format/Info : Advanced Video Codec
Format profile : Main@L3.2
Format settings, CABAC : Yes
Format settings, ReFrames : 3 frames
Format settings, GOP : M=4, N=33
Codec ID : avc1
Codec ID/Info : Advanced Video Coding
Duration : 12mn 36s
Bit rate mode : Variable
Bit rate : 4 188 Kbps
Width : 1 280 pixels
Height : 720 pixels
Display aspect ratio : 16:9
Frame rate mode : Constant
Frame rate : 25.000 fps
Standard : PAL
Color space : YUV
Chroma subsampling : 4:2:0
Bit depth : 8 bits
Scan type : Progressive
Bits/(Pixel*Frame) : 0.182
Stream size : 378 MiB (94%)
Language : English
Encoded date : UTC 2011-06-23 21:42:06
Tagged date : UTC 2011-06-23 21:42:06
Audio
ID : 2
Format : AAC
Format/Info : Advanced Audio Codec
Format profile : LC
Codec ID : 40
Duration : 12mn 36s
Bit rate mode : Variable
Bit rate : 253 Kbps
Maximum bit rate : 330 Kbps
Channel(s) : 2 channels
Channel positions : Front: L R
Sampling rate : 48.0 KHz
Compression mode : Lossy
Stream size : 22.9 MiB (6%)
Language : English
Encoded date : UTC 2011-06-23 21:42:06
Tagged date : UTC 2011-06-23 21:42:06

Скриншот c названием фильма

Скриншоты




[teatrix.ru].t4288.torrent 
Торрент: Зарегистрирован [ 2015-10-07 20:05 ] · FC3AF81FCA807984936C974BB4EB7B8C325375BD

Скачать .torrent

Скачать

16 KB

Статус: проверено
Скачан: 0 раз
Размер: 401 MB
terms.php



Быстрый ответ

Имя:

      
Для отправки сообщений необходимо включить JavaScript
Показать сообщения:    

Текущее время: 03-Дек 09:51

Часовой пояс: UTC + 3


Вы можете начинать темы
Вы можете отвечать на сообщения
Вы не можете редактировать свои сообщения
Вы не можете удалять свои сообщения
Вы не можете голосовать в опросах
Вы не можете прикреплять файлы к сообщениям
Вы можете скачивать файлы