Трафик / Trafic (Каталин Митулеску / Catalin Mitulescu) [2004, Румыния, короткометражка, DVDRip] Sub rus + original rom


Статистика раздачи [Обновить пиров]
Размер:  104 MB   |    Зарегистрирован:  1 год 1 месяц   |    Скачан:  0 раз

Полного источника не было: Никогда

 
   
 
 
 

[Цитировать]

Трафик / Trafic
Страна: Румыния
Жанр: короткометражка
Год выпуска: 2004
Продолжительность: 00:14:55
Перевод: Субтитры (by sonnyb) Блог
Cубтитры: русские
Оригинальная аудиодорожка: румынский
Режиссер: Каталин Митулеску / Catalin Mitulescu
В ролях: Bogdan Dumitrache, Мария Динулеску, Ана Барт, Smaranda Ciceu, Ева Дэн
Описание: Бухарест, улицы, машины, пробки. Усталые светофоры, пешеходы. Типичный день молодого бизнесмена. Опоздание на важную встречу. Дела, заботы. Небольшая передышка, и в обратный путь по переполненным машинами улицам.
Доп. информация: Каннский кинофестиваль 2004 - лучший короткометражный фильм
Идея релиза: exvet
Качество видео: DVDRip
Формат видео: AVI
Видео: 720x576 (1.25:1), 25 fps, DivX Codec 5.1.1 ~776 kbps avg, 0.07 bit/pixel
Аудио: 44.100 kHz, MPEG Layer 3, 2 ch, ~192.00 kbps avg - Audio Stream
Формат субтитров: softsub (SRT), hardsub (английский)

MediaInfo

Общее
Полное имя : E:\Trafic (Catalin Mitulescu) 2004. Subs\Trafic (Catalin Mitulescu) 2004. Subs.avi
Формат : AVI
Формат/Информация : Audio Video Interleave
Размер файла : 104 Мбайт
Продолжительность : 14 м.
Общий поток : 978 Кбит/сек
Видео
Идентификатор : 0
Формат : MPEG-4 Visual
Параметр BVOP формата : 1
Параметр QPel формата : Нет
Параметр GMC формата : Без точки перехода
Параметр матрицы формата : Default (H.263)
Режим смешивания : Сжатый битовый поток
Идентификатор кодека : DX50
Идентификатор кодека/Подсказка : DivX 5
Продолжительность : 14 м.
Битрейт : 777 Кбит/сек
Ширина : 720 пикс.
Высота : 576 пикс.
Соотношение сторон : 5:4
Частота кадров : 25,000 кадр/сек
Стандарт вещания : PAL
Цветовое пространство : YUV
Подвыборка цветности : 4:2:0
Битовая глубина : 8 бит
Тип развёртки : Прогрессивная
Метод сжатия : С потерями
Бит/(Пиксели*Кадры) : 0.075
Размер потока : 82,9 Мбайт (79%)
Библиотека кодирования : DivX 5.1.1 (Maupiti) (UTC 2003-11-19)
Аудио
Идентификатор : 1
Формат : MPEG Audio
Версия формата : Version 1
Профиль формата : Layer 3
Идентификатор кодека : 55
Идентификатор кодека/Подсказка : MP3
Продолжительность : 14 м.
Вид битрейта : Постоянный
Битрейт : 192 Кбит/сек
Каналы : 2 канала
Частота : 44,1 КГц
Метод сжатия : С потерями
Задержка видео : 26 мс.
Размер потока : 20,5 Мбайт (20%)
Выравнивание : Разделение по промежуткам
Продолжительность промежутка : 40 мс. (1,00 видеокадр)
Заголовок : Audio Stream

Скриншоты

[teatrix.ru].t4292.torrent 
Торрент: Зарегистрирован [ 2015-10-07 20:05 ] · A6B97659E17E821E04949CB6566BD8EB6D76CCBF

Скачать .torrent

Скачать

17 KB

Статус: проверено
Скачан: 0 раз
Размер: 104 MB
terms.php



Быстрый ответ

Имя:

      
Для отправки сообщений необходимо включить JavaScript
Показать сообщения:    

Текущее время: 06-Дек 05:38

Часовой пояс: UTC + 3


Вы можете начинать темы
Вы можете отвечать на сообщения
Вы не можете редактировать свои сообщения
Вы не можете удалять свои сообщения
Вы не можете голосовать в опросах
Вы не можете прикреплять файлы к сообщениям
Вы можете скачивать файлы