Квартира 29 (Роман Каримов) [2008, Россия, короткометражка, драма, DVDRip]


Статистика раздачи [Обновить пиров]
Размер:  386 MB   |    Зарегистрирован:  1 год 1 месяц   |    Скачан:  0 раз

Полного источника не было: Никогда

 
   
 
 
 

[Цитировать]

Квартира 29 / Квартира 29
Страна: Россия
Жанр: короткометражка , драма
Год выпуска: 2008
Продолжительность: 00:35:10
Перевод: Не требуется
Cубтитры: нет
Режиссер: Роман Каримов
В ролях: Александр Рябини, Роман Каримов, Роберт Саяхов, Элеонора Кадырова
Описание: Пути двух друзей детства пересекаются много лет спустя. Теперь один приторговывает наркотиками, второй же работает участковым. Их интересы сталкиваются в Квартире 29.
Сэмпл: http://multi-up.com/530538
Качество видео: DVDRip
Формат видео: AVI
Видео: 1392 Кб/с, 720*576 ,25 кадр/сек , Xvid
Аудио: 128 Кб/с, 44.1 Кгц, 2 канала

MediaInfo

ормат : AVI
Формат/Информация : Audio Video Interleave
Размер файла : 386 Мбайт
Продолжительность : 35 м.
Общий поток : 1533 Кбит/сек
Программа кодирования : Lavf52.39.1
Видео
Идентификатор : 0
Формат : xvid
Идентификатор кодека : xvid
Продолжительность : 35 м.
Битрейт : 1392 Кбит/сек
Ширина : 720 пикс.
Высота : 576 пикс.
Соотношение сторон : 5:4
Частота кадров : 25,000 кадр/сек
Стандарт вещания : PAL
Бит/(Пиксели*Кадры) : 0.134
Размер потока : 350 Мбайт (91%)
Аудио
Идентификатор : 1
Формат : MPEG Audio
Версия формата : Version 1
Профиль формата : Layer 3
Режим : Joint stereo
Расширение режима : MS Stereo
Идентификатор кодека : 55
Идентификатор кодека/Подсказка : MP3
Продолжительность : 35 м.
Вид битрейта : Постоянный
Битрейт : 128 Кбит/сек
Канал(ы) : 2 канала(ов)
Частота : 44,1 КГц
Метод сжатия : С потерями
Размер потока : 32,2 Мбайт (8%)
Выравнивание : Соединение по промежуткам
Продолжительность промежутка : 26 мс. (0,65 видеокадр)

Скриншот c названием фильма

Скриншоты

[teatrix.ru].t4294.torrent 
Торрент: Зарегистрирован [ 2015-10-07 20:05 ] · 9332D4BC1859FE5D9ECD98DCAA84CB7B9225E9AA

Скачать .torrent

Скачать

16 KB

Статус: проверено
Скачан: 0 раз
Размер: 386 MB
terms.php



Быстрый ответ

Имя:

      
Для отправки сообщений необходимо включить JavaScript
Показать сообщения:    

Текущее время: 05-Дек 03:25

Часовой пояс: UTC + 3


Вы можете начинать темы
Вы можете отвечать на сообщения
Вы не можете редактировать свои сообщения
Вы не можете удалять свои сообщения
Вы не можете голосовать в опросах
Вы не можете прикреплять файлы к сообщениям
Вы можете скачивать файлы