Влюблённость / Crush (Филлип Дж. Бартелл / Phillip J. Bartell) [2000, США, Комедия, Драма, Короткий метр, Гей-тема, VHSRip] VO


Статистика раздачи [Обновить пиров]
Размер:  230 MB   |    Зарегистрирован:  1 год 1 месяц   |    Скачан:  0 раз

Полного источника не было: 11 месяцев 26 дней

 
   
 
 
 

[Цитировать]

Влюблённость / Crush
Страна: США
Жанр: Комедия, Драма, Короткий метр, Гей-тема
Год выпуска: 2000
Продолжительность: 00:27:28
Перевод: Любительский (одноголосый закадровый) || Перевод: Skito; озвучка: Василий Кошкин.
Cубтитры: нет
Режиссер: Филлип Дж. Бартелл / Phillip J. Bartell
В ролях: Бретт Чарльз, Уэстон Мюллер, Бетани М. Эшли, Колин Бэйн, Ричард Блейк, Роберт Карсон и др.
Описание: 12-летняя Тина влюбляется в 16-летнего Робби. Благодаря общим телевизионным пристрастиям и любви к слащавой музыке, они становятся лучшими друзьями. Однако, к несчастью для Тины, Робби влюбляется не в неё...
Сэмпл: http://multi-up.com/530461
Качество видео: VHSRip (взят из сети)
Формат видео: AVI
Видео: XviD, 656x336, 1.952, 23.976 fps, 970 Kbps
Аудио: MP3, 44.1 KHz, 192 Kbps, 2 channels

MediaInfo

General
Complete name : D:\ВИДЕО\На торрент\Crush 2000 rus.avi
Format : AVI
Format/Info : Audio Video Interleave
File size : 230 MiB
Duration : 27mn 28s
Overall bit rate : 1 171 Kbps
Video
ID : 0
Format : MPEG-4 Visual
Format profile : Advanced Simple@L5
Format settings, BVOP : No
Format settings, QPel : No
Format settings, GMC : No warppoints
Format settings, Matrix : Default (MPEG)
Codec ID : XVID
Codec ID/Hint : XviD
Duration : 27mn 28s
Bit rate : 970 Kbps
Width : 656 pixels
Height : 336 pixels
Display aspect ratio : 1.952
Frame rate : 23.976 fps
Color space : YUV
Chroma subsampling : 4:2:0
Bit depth : 8 bits
Scan type : Progressive
Compression mode : Lossy
Bits/(Pixel*Frame) : 0.183
Stream size : 191 MiB (83%)
Writing library : XviD 62
Audio
ID : 1
Format : MPEG Audio
Format version : Version 1
Format profile : Layer 3
Codec ID : 55
Codec ID/Hint : MP3
Duration : 27mn 27s
Bit rate mode : Constant
Bit rate : 192 Kbps
Channel(s) : 2 channels
Sampling rate : 44.1 KHz
Compression mode : Lossy
Stream size : 37.7 MiB (16%)
Alignment : Split accross interleaves
Interleave, duration : 43 ms (1.02 video frame)
Writing library : LAMELAME_MAJOR_VERSI

Скриншот c названием фильма

Скриншоты


[teatrix.ru].t4295.torrent 
Торрент: Зарегистрирован [ 2015-10-07 20:05 ] · A6B1EBA463E69B6E5EC57CD71A32E58CEF3B3E29

Скачать .torrent

Скачать

18 KB

Статус: проверено
Скачан: 0 раз
Размер: 230 MB
terms.php



Быстрый ответ

Имя:

      
Для отправки сообщений необходимо включить JavaScript
Показать сообщения:    

Текущее время: 07-Дек 19:26

Часовой пояс: UTC + 3


Вы можете начинать темы
Вы можете отвечать на сообщения
Вы не можете редактировать свои сообщения
Вы не можете удалять свои сообщения
Вы не можете голосовать в опросах
Вы не можете прикреплять файлы к сообщениям
Вы можете скачивать файлы