Во имя отца / Em Nome do Pai / In the Name of the Father (Жулио Мария Пессоа / Júlio Maria Pessoa) [2002, Бразилия, Короткий метр, Драма, Гей-тема, VHSRip] VO


Статистика раздачи [Обновить пиров]
Размер:  113 MB   |    Зарегистрирован:  1 год 1 месяц   |    Скачан:  0 раз

Полного источника не было: Никогда

 
   
 
 
 

[Цитировать]

Во имя отца / Em Nome do Pai / In the Name of the Father
Страна: Бразилия
Жанр: Короткий метр, Драма, Гей-тема
Год выпуска: 2002
Продолжительность: 00:17:11
Перевод: Любительский (одноголосый закадровый) || Перевод: lencse; озвучка: Василий Кошкин.
Cубтитры: английские
Режиссер: Жулио Мария Пессоа / Júlio Maria Pessoa
В ролях: Элиас Андреато, Леонарду Мижиорин и др.
Описание: Короткий фильм из Бразилии о долгой истории любви отца и сына, любви, для которой нет преград...
Сэмпл: http://multi-up.com/530445
Качество видео: VHSRip (взят из сети)
Формат видео: AVI
Видео: XviD, 624x416, 3:2, 29.970 fps, 716 Kbps
Аудио: MP3, 44.1 KHz, 192 Kbps, 2 channels
Формат субтитров: hardsub (неотключаемые)

MediaInfo

General
Complete name : D:\ВИДЕО\На торрент\Em Nome do Pai rus.avi
Format : AVI
Format/Info : Audio Video Interleave
File size : 113 MiB
Duration : 17mn 11s
Overall bit rate : 920 Kbps
Writing application : VirtualDubMod 1.5.10.2 (build 2542/release)
Writing library : VirtualDubMod build 2542/release
Video
ID : 0
Format : MPEG-4 Visual
Format profile : Advanced Simple@L5
Format settings, BVOP : 1
Format settings, QPel : No
Format settings, GMC : No warppoints
Format settings, Matrix : Default (H.263)
Muxing mode : Packed bitstream
Codec ID : XVID
Codec ID/Hint : XviD
Duration : 17mn 11s
Bit rate : 716 Kbps
Width : 624 pixels
Height : 416 pixels
Display aspect ratio : 3:2
Frame rate : 29.970 fps
Color space : YUV
Chroma subsampling : 4:2:0
Bit depth : 8 bits
Scan type : Progressive
Compression mode : Lossy
Bits/(Pixel*Frame) : 0.092
Stream size : 88.1 MiB (78%)
Writing library : XviD 63
Audio
ID : 1
Format : MPEG Audio
Format version : Version 1
Format profile : Layer 3
Codec ID : 55
Codec ID/Hint : MP3
Duration : 17mn 11s
Bit rate mode : Constant
Bit rate : 192 Kbps
Channel(s) : 2 channels
Sampling rate : 44.1 KHz
Compression mode : Lossy
Stream size : 23.6 MiB (21%)
Alignment : Split accross interleaves
Interleave, duration : 33 ms (1.00 video frame)
Interleave, preload duration : 500 ms
Writing library : LAMELAME_MAJOR_VERSI

Скриншот c названием фильма

Скриншоты


[teatrix.ru].t4296.torrent 
Торрент: Зарегистрирован [ 2015-10-07 20:05 ] · 9937F0133654B06F6001829C92F606D338690593

Скачать .torrent

Скачать

18 KB

Статус: проверено
Скачан: 0 раз
Размер: 113 MB
terms.php



Быстрый ответ

Имя:

      
Для отправки сообщений необходимо включить JavaScript
Показать сообщения:    

Текущее время: 05-Дек 17:29

Часовой пояс: UTC + 3


Вы можете начинать темы
Вы можете отвечать на сообщения
Вы не можете редактировать свои сообщения
Вы не можете удалять свои сообщения
Вы не можете голосовать в опросах
Вы не можете прикреплять файлы к сообщениям
Вы можете скачивать файлы