Знаки / Signs (Патрик Хьюз / Patrick Hughes) [2008 г., мелодрама, короткометражка, DVDRip] AVO (Чадов)


Статистика раздачи [Обновить пиров]
Размер:  173 MB   |    Зарегистрирован:  1 год 1 месяц   |    Скачан:  0 раз

Полного источника не было: Никогда

 
   
 
 
 

[Цитировать]

Знаки / Signs
-
Год выпуска: 2008
Страна: Австралия
Жанр: мелодрама, короткометражка
Продолжительность: 00:12:32
Субтитры: нет
Перевод:
- Авторский (одноголосый закадровый) Михаил Чадов
-
Режиссер: Патрик Хьюз / Patrick Hughes
-
В ролях: Ник Расселл, Кести Морасси
-
Описание: Скучная размеренная жизнь: каждый день одна и та же дорога в офис, одна и та же работа, одни и те же лица вокруг. Но в самой обычной жизни самого обычного сотрудника крупной компании внезапно находится место служебному роману. Такова завязка 12-минутного фильма Signs - «Знаки» (другое значение слова - "табличка с надписью"). Он был разработан и снят агентствами Publicis Mojo и @RadicalMedia для проекта «Фестиваль краткометражных фильмов Schweppes» (заказчик - компания Coca-cola). (По обоим веткам можно посмотреть короткометражку online). Сюжет ролика - трогательный и незамысловатый. Каждый день в окне напротив главный герой видит девушку. Постепенно они начинают общаться между собой с помощью реплик, написанных на бумаге для принтера и показанных в окно. Серые рабочие будни уходят: теперь молодой человек с радостью спешит в офис, чтобы снова продолжить общение. Но однажды девушка исчезает... Популярность «Знаки» завоевали совсем недавно, после того, как это видео загрузил на YouTube один из пользователей. Теперь количество просмотров ролика неуклонно приближается к миллиону, а Schweppes нежданно-негаданно получил отдельную рекламную кампанию, подтверждая способность нынешней аудитории взаимодействовать с брендами и влиять на них.
-
Качество: DVDRip
Формат: AVI
Видео: DivX; 720x306; 1398 Kbps; 25 fps
Аудио: MP3; 2.0, 44,1 kHz, 256 kbps
[spoiler="Скриншоты">

Скриншот с названием [spoiler="Скриншоты

MediaInfo"]
General
Complete name : Signs (Чадов).avi
Format : AVI
Format/Info : Audio Video Interleave
File size : 173 MiB
Duration : 12mn 32s
Overall bit rate : 1 925 Kbps
Writing application : VirtualDubMod 1.5.10.2 (build 2542/release)
Writing library : VirtualDubMod build 2542/release
Video
ID : 0
Format : MPEG-4 Visual
Format profile : Simple@L1
Format settings, BVOP : No
Format settings, QPel : No
Format settings, GMC : No warppoints
Format settings, Matrix : Default (H.263)
Codec ID : DX50
Codec ID/Hint : DivX 5
Duration : 12mn 32s
Bit rate : 1 398 Kbps
Width : 720 pixels
Height : 306 pixels
Display aspect ratio : 2.35:1
Frame rate : 25.000 fps
Color space : YUV
Chroma subsampling : 4:2:0
Bit depth : 8 bits
Scan type : Interlaced
Scan order : Top Field First
Compression mode : Lossy
Bits/(Pixel*Frame) : 0.254
Stream size : 125 MiB (73%)
Writing library : Lavc51.44.0
Audio #1
ID : 1
Format : MPEG Audio
Format version : Version 1
Format profile : Layer 3
Mode : Joint stereo
Codec ID : 55
Codec ID/Hint : MP3
Duration : 12mn 32s
Bit rate mode : Constant
Bit rate : 256 Kbps
Channel(s) : 2 channels
Sampling rate : 44.1 KHz
Compression mode : Lossy
Stream size : 23.0 MiB (13%)
Alignment : Split accross interleaves
Interleave, duration : 40 ms (1.00 video frame)
Interleave, preload duration : 500 ms
Audio #2
ID : 2
Format : MPEG Audio
Format version : Version 1
Format profile : Layer 3
Mode : Joint stereo
Mode extension : MS Stereo
Codec ID : 55
Codec ID/Hint : MP3
Duration : 12mn 32s
Bit rate mode : Constant
Bit rate : 256 Kbps
Channel(s) : 2 channels
Sampling rate : 44.1 KHz
Compression mode : Lossy
Stream size : 23.0 MiB (13%)
Alignment : Split accross interleaves
Interleave, duration : 40 ms (1.00 video frame)
Interleave, preload duration : 500 ms
Writing library : LAME3.97
[teatrix.ru].t4300.torrent 
Торрент: Зарегистрирован [ 2015-10-07 20:05 ] · 55AAC52C86E4F6B3E22D364A9AE864E375B5F632

Скачать .torrent

Скачать

14 KB

Статус: проверено
Скачан: 0 раз
Размер: 173 MB
terms.php



Быстрый ответ

Имя:

      
Для отправки сообщений необходимо включить JavaScript
Показать сообщения:    

Текущее время: 03-Дек 20:43

Часовой пояс: UTC + 3


Вы можете начинать темы
Вы можете отвечать на сообщения
Вы не можете редактировать свои сообщения
Вы не можете удалять свои сообщения
Вы не можете голосовать в опросах
Вы не можете прикреплять файлы к сообщениям
Вы можете скачивать файлы