Незрелая любовь / Amor crudo / Raw Love (Хуан Чаппа / Juan Chappa, Мартин Деус / Martín Deus) [2008, Аргентина, Короткий метр, Мелодрама, Гей-тема, DVDRip] VO


Статистика раздачи [Обновить пиров]
Размер:  94 MB   |    Зарегистрирован:  1 год 2 месяца   |    Скачан:  0 раз

Полного источника не было: Никогда

 
   
 
 
 

[Цитировать]

Незрелая любовь / Amor crudo / Raw Love
Страна: Аргентина
Жанр: Короткий метр, Мелодрама, Гей-тема
Год выпуска: 2008
Продолжительность: 00:14:32
Перевод: Любительский (одноголосый закадровый) || Перевод: sahara111; озвучка: Василий Кошкин.
Cубтитры: нет
Режиссер: Хуан Чаппа / Juan Chappa, Мартин Деус / Martín Deus
В ролях: Валентино Ароцена, Хуан Фелип Виллануэва, Катя Алеман....
Описание: Последние школьные дни. Два близких друга проводят все время вместе, но это неминуемо скоро должно закончиться. Смешанные чувства, маленькие секреты и то, что порой так трудно выразить словами...
Сэмпл: http://multi-up.com/523087
Качество видео: DVDRip (взят с зарубежного трекера)
Формат видео: AVI
Видео: XviD, 848x480, 16:9, 25.000 fps, 699 Kbps
Аудио: MP3, 44.1 KHz, 192 Kbps, 2 channels

MediaInfo

General
Complete name : D:\ВИДЕО\На торрент\Amor crudo Raw Love rus.avi
Format : AVI
Format/Info : Audio Video Interleave
File size : 93.6 MiB
Duration : 14mn 31s
Overall bit rate : 901 Kbps
Video
ID : 0
Format : MPEG-4 Visual
Format profile : Advanced Simple@L5
Format settings, BVOP : No
Format settings, QPel : No
Format settings, GMC : No warppoints
Format settings, Matrix : Default (MPEG)
Codec ID : XVID
Codec ID/Hint : XviD
Duration : 14mn 31s
Bit rate : 699 Kbps
Width : 848 pixels
Height : 480 pixels
Display aspect ratio : 16:9
Frame rate : 25.000 fps
Color space : YUV
Chroma subsampling : 4:2:0
Bit depth : 8 bits
Scan type : Progressive
Compression mode : Lossy
Bits/(Pixel*Frame) : 0.069
Stream size : 72.7 MiB (78%)
Writing library : XviD 62
Audio
ID : 1
Format : MPEG Audio
Format version : Version 1
Format profile : Layer 3
Codec ID : 55
Codec ID/Hint : MP3
Duration : 14mn 31s
Bit rate mode : Constant
Bit rate : 192 Kbps
Channel(s) : 2 channels
Sampling rate : 44.1 KHz
Compression mode : Lossy
Stream size : 20.0 MiB (21%)
Alignment : Split accross interleaves
Interleave, duration : 41 ms (1.03 video frame)

Скриншот c названием фильма

Скриншоты


[teatrix.ru].t4301.torrent 
Торрент: Зарегистрирован [ 2015-10-07 20:05 ] · 61021B84D22EFE9D0B0BB9875C808DB4CB864DC1

Скачать .torrent

Скачать

15 KB

Статус: проверено
Скачан: 0 раз
Размер: 94 MB
terms.php



Быстрый ответ

Имя:

      
Для отправки сообщений необходимо включить JavaScript
Показать сообщения:    

Текущее время: 10-Дек 11:57

Часовой пояс: UTC + 3


Вы можете начинать темы
Вы можете отвечать на сообщения
Вы не можете редактировать свои сообщения
Вы не можете удалять свои сообщения
Вы не можете голосовать в опросах
Вы не можете прикреплять файлы к сообщениям
Вы можете скачивать файлы