Соль Земли / The Salt of the Earth (Джулиано Рибейру Сальгаду, Вим Вендерс / Juliano Ribeiro Salgado, Wim Wenders) [2014, Франция, Бразилия, Италия, документальный, биография, BDRip 1080p] MVO (iTunes) + Sub Rus, Eng + Original Eng


Статистика раздачи [Обновить пиров]
Размер:  11.46 GB   |    Зарегистрирован:  1 год 1 месяц   |    Скачан:  0 раз

Полного источника не было: Никогда

 
   
 
 
 

[Цитировать]

Соль Земли / The Salt of the Earth
Страна: Франция, Бразилия, Италия
Студия: Amazonas Images
Жанр: документальный, биография
Год выпуска: 2014
Продолжительность: 01:50:01
Перевод: Профессиональный (многоголосый закадровый) iTunes
Cубтитры: Rus, Eng
Оригинальная аудиодорожка: английский
Режиссер: Джулиано Рибейру Сальгаду, Вим Вендерс / Juliano Ribeiro Salgado, Wim Wenders
В ролях: Себастьян Сальгадо, Вим Вендерс, Лейла Ваник Сальгадо,Джулиано Рибейру Сальгаду, Хьюго Барбье, Жак Бартелеми, Régis Muller, Жоау Пессоа Маттос
Описание: Себастьян Сальгадо — величайший фотограф современности. Ни одно событие не укрылось от его объектива. Взгляните на мир другими глазами! Откройте для себя завораживающую историю жизни, проникающую прямо в сердце.

Тип релиза: BDRip 1080p
Контейнер: MKV
Видео: MPEG-4 AVC, 13.0 Mбит/с, 1920x1080, 23,976 fps
Аудио: Rus, AC3, 384 kb/s (6 ch), 48 kHz
Аудио 2: Eng, DTS, 1510 kb/s (6 ch), 48 kHz
Формат субтитров: softsub (SRT)

MediaInfo

Format : Matroska
Format version : Version 4 / Version 2
File size : 11.5 GiB
Duration : 1h 50mn
Overall bit rate : 14.9 Mbps
Movie name : Соль Земли. (Tonik)
Encoded date : UTC 2015-09-15 03:21:06
Writing application : mkvmerge v7.1.0 ('Good Love') 64bit built on Jul 27 2014 13:06:55
Writing library : libebml v1.3.0 + libmatroska v1.4.1
_STATISTICS_WRITING_APP : mkvmerge v7.1.0 ('Good Love') 64bit built on Jul 27 2014 13:06:55
_STATISTICS_WRITING_DATE_UTC : 2015-09-15 03:21:06
_STATISTICS_TAGS : BPS DURATION NUMBER_OF_FRAMES NUMBER_OF_BYTES
DURATION : 01:50:17.611000000
NUMBER_OF_FRAMES : 158664
NUMBER_OF_BYTES : 10735262275
Video
ID : 1
Format : AVC
Format/Info : Advanced Video Codec
Format profile : High@L4.1
Format settings, CABAC : Yes
Format settings, ReFrames : 4 frames
Codec ID : V_MPEG4/ISO/AVC
Duration : 1h 50mn
Bit rate : 13.0 Mbps
Width : 1 920 pixels
Height : 1 080 pixels
Display aspect ratio : 16:9
Frame rate mode : Constant
Frame rate : 23.976 fps
Color space : YUV
Chroma subsampling : 4:2:0
Bit depth : 8 bits
Scan type : Progressive
Bits/(Pixel*Frame) : 0.261
Stream size : 9.77 GiB (85%)
Writing library : x264 core 142 r2409+42 04be48a tMod [8-bit@all X86_64]
Encoding settings : cabac=1 / ref=4 / deblock=1:-3:-3 / analyse=0x3:0x133 / me=umh / subme=11 / psy=1 / fade_compensate=0.00 / psy_rd=1.00:0.15 / mixed_ref=1 / me_range=24 / chroma_me=1 / trellis=2 / 8x8dct=1 / cqm=0 / deadzone=21,11 / fast_pskip=1 / chroma_qp_offset=-3 / threads=36 / lookahead_threads=6 / sliced_threads=0 / nr=0 / decimate=1 / interlaced=0 / bluray_compat=0 / constrained_intra=0 / fgo=0 / bframes=8 / b_pyramid=2 / b_adapt=2 / b_bias=0 / direct=3 / weightb=1 / open_gop=0 / weightp=2 / keyint=240 / keyint_min=23 / scenecut=40 / intra_refresh=0 / rc_lookahead=60 / rc=2pass / mbtree=1 / bitrate=13000 / ratetol=1.0 / qcomp=0.60 / qpmin=10:10:10 / qpmax=51:51:51 / qpstep=4 / cplxblur=20.0 / qblur=0.5 / vbv_maxrate=40000 / vbv_bufsize=30000 / nal_hrd=none / filler=0 / ip_ratio=1.40 / aq=1:1.00 / aq-sensitivity=10.00 / aq-factor=1.00:1.00:1.00 / aq2=0 / aq3=0
Language : English
Default : Yes
Forced : No
Audio #1
ID : 2
Format : AC-3
Format/Info : Audio Coding 3
Mode extension : CM (complete main)
Format settings, Endianness : Big
Codec ID : A_AC3
Duration : 1h 50mn
Bit rate mode : Constant
Bit rate : 384 Kbps
Channel(s) : 6 channels
Channel positions : Front: L C R, Side: L R, LFE
Sampling rate : 48.0 KHz
Bit depth : 16 bits
Compression mode : Lossy
Stream size : 303 MiB (3%)
Language : Russian
Default : Yes
Forced : No
Audio #2
ID : 3
Format : DTS
Format/Info : Digital Theater Systems
Mode : 16
Format settings, Endianness : Big
Codec ID : A_DTS
Duration : 1h 50mn
Bit rate mode : Constant
Bit rate : 1 509 Kbps
Channel(s) : 6 channels
Channel positions : Front: L C R, Side: L R, LFE
Sampling rate : 48.0 KHz
Bit depth : 24 bits
Compression mode : Lossy
Stream size : 1.16 GiB (10%)
Language : English
Default : No
Forced : No
Text #1
ID : 4
Format : UTF-8
Codec ID : S_TEXT/UTF8
Codec ID/Info : UTF-8 Plain Text
Language : Russian
Default : No
Forced : No
Text #2
ID : 5
Format : UTF-8
Codec ID : S_TEXT/UTF8
Codec ID/Info : UTF-8 Plain Text
Language : English
Default : No
Forced : No
Menu
00:00:00.000 : en:Chapter 01
00:09:22.728 : en:Chapter 02
00:20:05.996 : en:Chapter 03
00:30:15.730 : en:Chapter 04
00:37:22.657 : en:Chapter 05
00:41:00.916 : en:Chapter 06
00:44:24.745 : en:Chapter 07
00:47:49.074 : en:Chapter 08
00:55:18.565 : en:Chapter 09
00:59:50.503 : en:Chapter 10
01:05:09.572 : en:Chapter 11
01:14:24.334 : en:Chapter 12
01:20:14.142 : en:Chapter 13
01:27:41.047 : en:Chapter 14
01:37:55.077 : en:Chapter 15
01:43:14.646 : en:Chapter 16

Скриншоты

[teatrix.ru].t4307.torrent 
Торрент: Зарегистрирован [ 2015-10-07 20:05 ] · 16DCB0434F3E7252E9020FA3AFA4BFA71E758616

Скачать .torrent

Скачать

29 KB

Статус: проверено
Скачан: 0 раз
Размер: 11.46 GB
terms.php



Быстрый ответ

Имя:

      
Для отправки сообщений необходимо включить JavaScript
Показать сообщения:    

Текущее время: 04-Дек 09:02

Часовой пояс: UTC + 3


Вы можете начинать темы
Вы можете отвечать на сообщения
Вы не можете редактировать свои сообщения
Вы не можете удалять свои сообщения
Вы не можете голосовать в опросах
Вы не можете прикреплять файлы к сообщениям
Вы можете скачивать файлы