Время путешествия / Tempo di viaggio (Андрей Тарковский, Тонино Гуэрра / Tonio Guerra) [1983, Италия, документальный, DVDRip] Sub Rus (ТhеРооh & Со) + Original Ita


Статистика раздачи [Обновить пиров]
Размер:  741 MB   |    Зарегистрирован:  1 год 1 месяц   |    Скачан:  2 раза

Полного источника не было: 1 день 14 часов

 
   
 
 
 

[Цитировать]

Время путешествия / Tempo di viaggio
Страна: Италия
Жанр: документальный
Год выпуска: 1983
Продолжительность: 01:02:19
Перевод: Субтитры - ТhеРооh & Со
Cубтитры: русские
Оригинальная аудиодорожка: итальянский

Режиссер: Андрей Тарковский , Тонино Гуэрра / Tonio Guerra
В ролях: Андрей Тарковский, Тонино Гуэрра
Описание: Документальная лента Тарковского и Гуэрра "Время путешествия" ("Долгое путешествие") посвящена поискам "натуры" - места съемок будущего фильма "Ностальгия". Начав путь из дома Гуэрра в городке Пенна-билли, расположенного в долине реки Мареккья (провинция Романья), съемочная группа объехала множество мест. Тонино Гуэрра, известный писатель и сценарист, вспоминает, что "Ностальгия" родилась на основе первоначального проекта - путешествия Тарковского по Италии.
Качество видео: DVDRip
Формат видео: AVI
Видео: 608x464 (1.31:1), 23.976 fps, XviD build 73 ~1460 kbps avg, 0.22 bit/pixel
Аудио: 48 kHz, AC3 Dolby Digital, 2/0 (L,R) ch, ~192 kbps

Фрагмент субтитров

182
00:23:02,147 --> 00:23:06,140
у Бурбона появились
признаки помешательства,
183
00:23:06,351 --> 00:23:11,812
и он выбросил в море все лепестки,
к которым прикасалась эта графиня.
184
00:23:11,857 --> 00:23:15,725
Вот видишь! Скажи Андрею,
что я говорил правду.
185
00:23:15,927 --> 00:23:18,623
Потому что мы в двух шагах от виллы,
186
00:23:18,864 --> 00:23:22,630
й
и, хотя настоящии владелец не разрешает
нам посмотреть пол, но он существует!
187
00:23:22,834 --> 00:23:25,928
Это неверно, что владелица не разрешает
вам посмотреть пол.
188
00:23:26,037 --> 00:23:29,973
К сожалению, владелицы в данный
момент нет в Сорренто,
189
00:23:30,142 --> 00:23:33,077
и нет никакои возможности попасть
190
00:23:33,145 --> 00:23:38,879
в те комнаты виллы, в которых,
я вас уверяю, находится этот пол.
191
00:23:39,050 --> 00:23:43,544
Ладно, но мы уже четыре дня звоним
из Неаполя, откуда только можно,
192
00:23:43,588 --> 00:23:44,987
так что мне теперь кажется...
193
00:23:45,657 --> 00:23:46,885
Я этого не знаю.
194
00:23:47,492 --> 00:23:49,084
- Нет? - Я этого не знаю.
- Нет?
195
00:23:49,194 --> 00:23:53,688
Мне позвонили сегодня утром
ровно в девять с четвертью.
196
00:23:54,366 --> 00:23:59,599
Так что у меня не было времени предупредить
синьору, чтобы она изменила свои планы.

MediaInfo

Общее
Полное имя : H:\Tempo.di.viaggio.1983.dvdrip_[745]_[teko]\Tempo.di.viaggio.1983.dvdrip_[745].avi
Формат : AVI
Формат/Информация : Audio Video Interleave
Размер файла : 741 Мбайт
Продолжительность : 1 ч. 2 м.
Общий поток : 1662 Кбит/сек
Программа кодирования : VirtualDubMod 1.5.10.3 | www.virtualdub-fr.org || (build 2550/release)
Библиотека кодирования : VirtualDubMod build 2550/release
Видео
Идентификатор : 0
Формат : MPEG-4 Visual
Профиль формата : Advanced Simple@L5
Параметр BVOP формата : 2
Параметр QPel формата : Нет
Параметр GMC формата : Без точки перехода
Параметр матрицы формата : Выборочная
Идентификатор кодека : XVID
Идентификатор кодека/Подсказка : XviD
Продолжительность : 1 ч. 2 м.
Битрейт : 1460 Кбит/сек
Ширина : 608 пикселей
Высота : 464 пикселя
Соотношение сторон : 4:3
Частота кадров : 23,976 кадра/сек
Цветовое пространство : YUV
Субдискретизация насыщенности : 4:2:0
Битовая глубина : 8 бит
Тип развёртки : Прогрессивная
Метод сжатия : С потерями
Бит/(Пиксели*Кадры) : 0.216
Размер потока : 651 Мбайт (88%)
Библиотека кодирования : XviD 73
Аудио
Идентификатор : 1
Формат : AC-3
Формат/Информация : Audio Coding 3
Расширение режима : CM (complete main)
Параметр Endianness формата : Big
Идентификатор кодека : 2000
Продолжительность : 1 ч. 2 м.
Вид битрейта : Постоянный
Битрейт : 192 Кбит/сек
Каналы : 2 канала
Расположение каналов : Front: L R
Частота : 48,0 КГц
Битовая глубина : 16 бит
Метод сжатия : С потерями
Размер потока : 85,6 Мбайт (12%)
Выравнивание : Разделение по промежуткам
Продолжительность промежутка : 42 мс. (1,00 видеокадр)
Время предзагрузки промежутка : 500 мс.
[teatrix.ru].t4312.torrent 
Торрент: Зарегистрирован [ 2015-10-07 20:05 ] · 757BC3374552DB37509B9E871EB5A88944684089

Скачать .torrent

Скачать

15 KB

Статус: проверено
Скачан: 2 раз
Размер: 741 MB
terms.php



Быстрый ответ

Имя:

      
Для отправки сообщений необходимо включить JavaScript
Показать сообщения:    

Текущее время: 05-Дек 13:33

Часовой пояс: UTC + 3


Вы можете начинать темы
Вы можете отвечать на сообщения
Вы не можете редактировать свои сообщения
Вы не можете удалять свои сообщения
Вы не можете голосовать в опросах
Вы не можете прикреплять файлы к сообщениям
Вы можете скачивать файлы