Ночь и туман / Nuit et brouillard / Night and Fog (Ален Рене / Alain Resnais) [1955, Франция, документальный, DVDRip] + Sub Rus, Eng + Original Fre


Статистика раздачи [Обновить пиров]
Размер:  500 MB   |    Зарегистрирован:  1 год 1 месяц   |    Скачан:  0 раз

Полного источника не было: Никогда

 
   
 
 
 

[Цитировать]

Ночь и туман / Nuit et brouillard / Night and Fog
Страна: Франция
Жанр: документальный
Год выпуска: 1955
Продолжительность: 00:31:52
Перевод: Субтитры
Cубтитры: русские, английские
Оригинальная аудиодорожка: французский

Режиссер: Ален Рене / Alain Resnais
Описание: Фильм-эссе о фашистских концлагерях.
«”Ночь и туман” по сценарию Ж. Кейроля, музыка Г. Эйслера, — выдающийся документ о преступлениях фашизма, документ совести, тревоги, документ пробуждения ответственности за то, чтобы это больше не повторилось…» (К. Долгов. Память и забвение. // Ален Рене — М.: Искусство, 1982. — (Мастера зарубежного киноискусства). С.13)

Качество видео: DVDRip
Формат видео: AVI
Видео: 624x480 (1.30:1), 23.976 fps, XviD build 73 ~1989 kbps avg, 0.28 bit/pixel
Аудио: 48 kHz, AC3 Dolby Digital, 1/0 (C) ch, ~192 kbps

Фрагмент субтитров

297
00:30:12,891 --> 00:30:15,473
лишь дремлет в полглаза.
298
00:30:22,634 --> 00:30:26,354
На аппельплаце и между бараков
вновь густо разрослась трава.
299
00:30:27,973 --> 00:30:30,840
Лагерь с виду - заброшенная деревня,
все еще источающая опасность.
300
00:30:42,487 --> 00:30:44,523
Печи крематориев больше не горят.
301
00:30:44,756 --> 00:30:46,940
Нацистские происки сегодня кажутся
детской забавой.
302
00:30:47,859 --> 00:30:50,953
Эти места принадлежат
девяти миллионам убитых.
303
00:30:58,003 --> 00:31:00,210
Кто из нас примет пост
на этой необычной сторожевой башне,
304
00:31:00,338 --> 00:31:02,852
чтобы предупредить
о приходе новых палачей?
305
00:31:04,075 --> 00:31:06,578
Так ли уж сильно их лица
будут отличаться от наших?
306
00:31:07,479 --> 00:31:10,403
Где-то среди нас
все еще живут уцелевшие капо,
307
00:31:10,615 --> 00:31:13,743
восстановленные в правах офицеры,
анонимные осведомители.

MediaInfo

Общее
Полное имя : H:\Nuit.et.brouillard.1955. dvdrip_[teko]\Nuit.et.brouillard.1955. dvdrip.avi
Формат : AVI
Формат/Информация : Audio Video Interleave
Размер файла : 500 Мбайт
Продолжительность : 31 м.
Общий поток : 2191 Кбит/сек
Программа кодирования : VirtualDubMod 1.5.10.3 | www.virtualdub-fr.org || (build 2550/release)
Библиотека кодирования : VirtualDubMod build 2550/release
Видео
Идентификатор : 0
Формат : MPEG-4 Visual
Профиль формата : Advanced Simple@L5
Параметр BVOP формата : 1
Параметр QPel формата : Нет
Параметр GMC формата : Без точки перехода
Параметр матрицы формата : Выборочная
Идентификатор кодека : XVID
Идентификатор кодека/Подсказка : XviD
Продолжительность : 31 м.
Битрейт : 1990 Кбит/сек
Ширина : 624 пикселя
Высота : 480 пикселей
Соотношение сторон : 4:3
Частота кадров : 23,976 кадра/сек
Цветовое пространство : YUV
Субдискретизация насыщенности : 4:2:0
Битовая глубина : 8 бит
Тип развёртки : Прогрессивная
Метод сжатия : С потерями
Бит/(Пиксели*Кадры) : 0.277
Размер потока : 454 Мбайт (91%)
Библиотека кодирования : XviD 73
Аудио
Идентификатор : 1
Формат : AC-3
Формат/Информация : Audio Coding 3
Расширение режима : CM (complete main)
Параметр Endianness формата : Big
Идентификатор кодека : 2000
Продолжительность : 31 м.
Вид битрейта : Постоянный
Битрейт : 192 Кбит/сек
Каналы : 1 канал
Расположение каналов : Front: C
Частота : 48,0 КГц
Битовая глубина : 16 бит
Метод сжатия : С потерями
Размер потока : 43,8 Мбайт (9%)
Выравнивание : Разделение по промежуткам
Продолжительность промежутка : 42 мс. (1,00 видеокадр)
Время предзагрузки промежутка : 500 мс.

Скриншоты

[teatrix.ru].t4313.torrent 
Торрент: Зарегистрирован [ 2015-10-07 20:05 ] · F2E21AFECD7AFDBD54D118C93887CEBDF40533C2

Скачать .torrent

Скачать

20 KB

Статус: проверено
Скачан: 0 раз
Размер: 500 MB
terms.php



Быстрый ответ

Имя:

      
Для отправки сообщений необходимо включить JavaScript
Показать сообщения:    

Текущее время: 07-Дек 19:26

Часовой пояс: UTC + 3


Вы можете начинать темы
Вы можете отвечать на сообщения
Вы не можете редактировать свои сообщения
Вы не можете удалять свои сообщения
Вы не можете голосовать в опросах
Вы не можете прикреплять файлы к сообщениям
Вы можете скачивать файлы