Возвращение в Нормандию / Retour en Normandie (Николя Филибер / Nicolas Philibert) [2007, Франция, документальный, DVDRip] + Sub Rus + Original Fre


Статистика раздачи [Обновить пиров]
Размер:  1.13 GB   |    Зарегистрирован:  1 год 1 месяц   |    Скачан:  0 раз

Полного источника не было: Никогда

 
   
 
 
 

[Цитировать]

Возвращение в Нормандию / Retour en Normandie
Страна: Франция
Жанр: документальный
Год выпуска: 2007
Продолжительность: 01:53:14
Перевод: Субтитры
Cубтитры: русские
Оригинальная аудиодорожка: французский
Режиссер: Николя Филибер / Nicolas Philibert
В ролях: Николя Филибер/Nicolas Philibert, Жозеф Лепортье/Joseph Leportier, Анник Жеан/Annick Géhan, Николь Пикар (Жеан)/Nicole Picard (Géhan), Жаклин Мильер/Jacqueline Millière, семья Борель/Les Borel, Норбер Делозье/Norbert Delozier, Шарль Лиу/Charles Lihou, Клод Эбер/Claude Hébert
Описание: Спустя тридцать лет после выхода фильма Рене Аллио «Я, Пьер Ривьер, зарезавший свою мать, сестру и брата», режиссер документальных фильмов Николя Филибер, работавший у Аллио ассистентом, возвращается в Нормандию. В фильме состоится встреча людей, которые в 1976 году сыграли главные роли в фильме Аллио. На встречу даже приезжает Клод Эбер, который сыграл Пьера Ривьера, а потом, после участия в нескольких фильмах (например, у Жака Дуайона в «Странной девчонке»), затерялся в Квебеке и, по слухам, умер. Филибер снял очень нежный фильм о людях, которых в какой-то мере изменил кинематограф, и о Нормандии с её яблоневыми садами и зелёными полями.
Фильм Рене Аллио «Я, Пьер Ривьер, зарезавший свою мать, сестру и брата» можно посмотреть по ссылке (http://rutracker.org/forum/viewtopic.php?t=4477076).
Доп. информация: Перевод – daft-digger, подготовка субтитров – alex-kin.
Файл взят с Карагарги, за что благодарим TheBlackCrispinGlover.
Предупреждение!
Натуралистические сцены действий (00:00:58 – 00:04:34), сопровождающих рождение поросёнка и/или забоя и освежевания свиньи (00:49:10 – 00:52:23), для людей с нежной психикой могут показаться травматичными, поэтому рекомендуем отложить просмотр до того времени, когда психика станет более крепкой.

Цикл кинокритических статей «Вокруг Фуко»

Алексей Тютькин. Рене. Фере. Круг замкнулся http://kinoart.ru/blogs/krug-zamknulsya
Алексей Тютькин. Рене Аллио. Убийство на грани мечты http://www.kinoart.ru/blogs/rene-allio-ubijstvo-na-grani-mechty
Алексей Тютькин. Николя Филибер. Праздник безумцев http://kinoart.ru/blogs/prazdnik-bezumtsev
Сэмпл: http://multi-up.com/1064313
Качество видео: DVDRip
Формат видео: AVI
Видео: XviD build 50 at 1284 kbps, 0.24 bit/pixel, 640x352 (1.82:1) at 23.976 fps
Аудио: MPEG Layer 3 at 129.67 kbps, 2 ch, 48 kHz
Формат субтитров: softsub (SRT)

MediaInfo

Формат : AVI
Формат/Информация : Audio Video Interleave
Размер файла : 1,13 Гбайт
Продолжительность : 1 ч. 53 м.
Общий поток : 1428 Кбит/сек
Программа кодирования : VirtualDubMod 1.5.10.2 (build 2540/release)
Библиотека кодирования : VirtualDubMod build 2540/release
Видео
Идентификатор : 0
Формат : MPEG-4 Visual
Профиль формата : Advanced Simple@L5
Параметр BVOP формата : 1
Параметр QPel формата : Нет
Параметр GMC формата : Без точки перехода
Параметр матрицы формата : Default (MPEG)
Идентификатор кодека : XVID
Идентификатор кодека/Подсказка : XviD
Продолжительность : 1 ч. 53 м.
Битрейт : 1285 Кбит/сек
Ширина : 640 пикс.
Высота : 352 пикс.
Соотношение сторон : 16:9
Частота кадров : 23,976 кадр/сек
Цветовое пространство : YUV
Подвыборка цветности : 4:2:0
Битовая глубина : 8 бит
Тип развёртки : Прогрессивная
Метод сжатия : С потерями
Бит/(Пиксели*Кадры) : 0.238
Размер потока : 1,02 Гбайт (90%)
Библиотека кодирования : XviD 1.2.1 (UTC 2008-12-04)
Аудио
Идентификатор : 1
Формат : MPEG Audio
Версия формата : Version 1
Профиль формата : Layer 3
Режим : Joint stereo
Расширение режима : MS Stereo
Идентификатор кодека : 55
Идентификатор кодека/Подсказка : MP3
Продолжительность : 1 ч. 53 м.
Вид битрейта : Переменный
Битрейт : 128 Кбит/сек
Канал(ы) : 2 канала(ов)
Частота : 48,0 КГц
Метод сжатия : С потерями
Размер потока : 105 Мбайт (9%)
Выравнивание : Соединение по промежуткам
Продолжительность промежутка : 24 мс. (0,58 видеокадр)
Время предзагрузки промежутка : 491 ms
Библиотека кодирования : LAME3.90.
Настройки программы : -m j -V 4 -q 2 -lowpass 17.6 --abr 128

Фрагмент субтитров

1
00:04:40,480 --> 00:04:42,971
Истоки этого фильма
лежат в другом фильме.
2
00:04:45,752 --> 00:04:49,017
В том, что снял Рене Аллио
в Нормандии 30 лет назад:
3
00:04:49,622 --> 00:04:51,556
"Я, Пьер Ривьер,
4
00:04:51,658 --> 00:04:54,149
зарезавший свою мать,
сестру и брата..."
5
00:04:57,063 --> 00:05:01,363
Основанный на одноименной книге
философа Мишеля Фуко,
6
00:05:01,467 --> 00:05:02,832
вышедшей двумя годами ранее,
7
00:05:03,436 --> 00:05:05,131
фильм, связанный с преступлением,
8
00:05:05,238 --> 00:05:08,105
совершенным в нормандской
глубинке в 1835 году,
9
00:05:08,207 --> 00:05:10,334
когда молодой
двадцатилетний крестьянин
10
00:05:10,443 --> 00:05:13,810
убил серпом троих членов
своей семьи.
11
00:05:14,947 --> 00:05:19,179
После месячных скитаний
он сдался под арест.
12
00:05:20,420 --> 00:05:23,617
Как только его заключили
под стражу, убийца,
13
00:05:23,723 --> 00:05:27,887
которого многие свидетели
описывали как очень странного юношу,
14
00:05:27,994 --> 00:05:31,327
чудака или даже идиота,
15
00:05:31,431 --> 00:05:33,956
начал писать объемные мемуары,
16
00:05:34,067 --> 00:05:36,535
текст ослепительной красоты,
17
00:05:36,636 --> 00:05:39,036
который предоставил
детальную информацию
18
00:05:39,138 --> 00:05:41,902
об обстоятельствах, которые
привели его к преступлению.
19
00:06:55,515 --> 00:06:59,884
ВОЗВРАЩЕНИЕ В НОРМАНДИЮ
20
00:07:03,173 --> 00:07:07,963
Фильм Николя Филибера

Скриншот c названием фильма

Скриншоты

[teatrix.ru].t4314.torrent 
Торрент: Зарегистрирован [ 2015-10-07 20:05 ] · 765FB2ABD91B89B7D34CEB1AF07F9C882B005E82

Скачать .torrent

Скачать

12 KB

Статус: проверено
Скачан: 0 раз
Размер: 1.13 GB
terms.php



Быстрый ответ

Имя:

      
Для отправки сообщений необходимо включить JavaScript
Показать сообщения:    

Текущее время: 05-Дек 01:27

Часовой пояс: UTC + 3


Вы можете начинать темы
Вы можете отвечать на сообщения
Вы не можете редактировать свои сообщения
Вы не можете удалять свои сообщения
Вы не можете голосовать в опросах
Вы не можете прикреплять файлы к сообщениям
Вы можете скачивать файлы