Торвальдсен / Thorvaldsen: Denmark\'s Great Sculptor (Карл Т. Дрейер / Carl Th. Dreyer) [1949, Дания, документальный, короткометражный, DVDRip] Sub Rus + Original Dan


Статистика раздачи [Обновить пиров]
Размер:  107 MB   |    Зарегистрирован:  1 год 1 месяц   |    Скачан:  0 раз

Полного источника не было: Никогда

 
   
 
 
 

[Цитировать]

Торвальдсен / Thorvaldsen: Denmark's Great Sculptor
Страна: Дания
Жанр: документальный, короткометражный
Год выпуска: 1949
Продолжительность: 00:10:00
Перевод: Субтитры Katerina Alexandrovna
Cубтитры: русские
Режиссер: Карл Т. Дрейер / Carl Th. Dreyer
Описание: Короткий документальный фильм посвящен работам великого датского скульптора Бертеля Торвальсена.
По своей стилистике фильм напоминает советский науч-поп 60-70-х годов - местами пафосная речь, местами небольшой анализ работ датского скульптора XIX века. Впрочем, в фильме есть одна мысль об оригинальной возможности выражения движения в скульптуре - мысль, более подробно развитая в труде Б.И.Виппера "Введение в историческое изучение искусства. С другой стороны, есть одна любопытная статья "Кинематограф пыли", в которой разбираются особые достоинства этого небольшого документального фильма с точки зрения онтологии образа.

Качество видео: DVDRip Исходник
Формат видео: AVI
Видео: 608x464 , 23.976 fps, XviD build 73 ~1362 kbps avg, 0.201 bit/pixel
Аудио: 48 kHz, MPEG Layer 3, 2 ch, 128 kbps avg
Формат субтитров: softsub (SRT)Релиз группы

MediaInfo

General
Complete name               : C:\Video\Torvaldssen\Torvaldssen DVDRip.avi
Format                      : AVI
Format/Info                 : Audio Video Interleave
File size                   : 107 MiB
Duration                    : 10mn 0s
Overall bit rate            : 1 499 Kbps
Writing application         : VirtualDubMod 1.5.10.3 | www.virtualdub-fr.org || (build 2550/release)
Writing library             : VirtualDubMod build 2550/release
Video
ID                          : 0
Format                      : MPEG-4 Visual
Format profile              : Advanced Simple@L5
Format settings, BVOP       : 2
Format settings, QPel       : No
Format settings, GMC        : No warppoints
Format settings, Matrix     : Default (H.263)
Codec ID                    : XVID
Codec ID/Hint               : XviD
Duration                    : 10mn 0s
Bit rate                    : 1 362 Kbps
Width                       : 608 pixels
Height                      : 464 pixels
Display aspect ratio        : 4:3
Frame rate                  : 23.976 fps
Color space                 : YUV
Chroma subsampling          : 4:2:0
Bit depth                   : 8 bits
Scan type                   : Progressive
Compression mode            : Lossy
Bits/(Pixel*Frame)          : 0.201
Stream size                 : 97.5 MiB (91%)
Writing library             : XviD 1.2.1 (UTC 2008-12-04)
Audio
ID                          : 1
Format                      : MPEG Audio
Format version              : Version 1
Format profile              : Layer 3
Codec ID                    : 55
Codec ID/Hint               : MP3
Duration                    : 10mn 0s
Bit rate mode               : Constant
Bit rate                    : 128 Kbps
Channel(s)                  : 2 channels
Sampling rate               : 48.0 KHz
Compression mode            : Lossy
Stream size                 : 9.16 MiB (9%)
Alignment                   : Aligned on interleaves
Interleave, duration        : 42 ms (1.00 video frame)
Interleave, preload duratio : 504 ms
Writing library             : LAME3.99r
Encoding settings           : -m s -V 4 -q 0 -lowpass 17 -b 128

Пример субтитров

5
00:00:42,823 --> 00:00:46,816
и в 1 79 7 году уехал в Рим,
чтобы продолжить обучение,
6
00:00:46,927 --> 00:00:50,920
где он и провел самую
важную часть своей жизни.
7
00:00:51,031 --> 00:00:54,023
Именно в Риме
он стал знаменитым,
8
00:00:54,134 --> 00:00:57,626
и заказы посыпались
на него со всей Европы.
9
00:00:57,738 --> 00:01:01,003
В 1838 году он вернулся в Данию,
10
00:01:01,108 --> 00:01:04,100
где с восторгом был встречен
своими соотечественниками.

Скриншот c названием фильма

Скриншоты

[teatrix.ru].t4315.torrent 
Торрент: Зарегистрирован [ 2015-10-07 20:05 ] · 57C457F633ABFEF14B6184CF69593005E3CD36A4

Скачать .torrent

Скачать

17 KB

Статус: проверено
Скачан: 0 раз
Размер: 107 MB
terms.php



Быстрый ответ

Имя:

      
Для отправки сообщений необходимо включить JavaScript
Показать сообщения:    

Текущее время: 02-Дек 21:14

Часовой пояс: UTC + 3


Вы можете начинать темы
Вы можете отвечать на сообщения
Вы не можете редактировать свои сообщения
Вы не можете удалять свои сообщения
Вы не можете голосовать в опросах
Вы не можете прикреплять файлы к сообщениям
Вы можете скачивать файлы