Фламенко / Flamenco (Карлос Саура / Carlos Saura) [1995, Испания, документальный, фламенко, DVDRip] Sub Rus + Original Spa


 

[Цитировать]

Фламенко / Flamenco
Страна: Испания
Жанр: документальный, фламенко
Год выпуска: 1995
Продолжительность: 01:38:10
Перевод: Субтитры - Handino
Cубтитры: русские
Оригинальная аудиодорожка: испанский

Режиссер: Карлос Саура / Carlos Saura
В ролях: Ла Пакера де Херес, Пако де Лусия, Маноло Санлукар, Диего Карраско, Пепе де Лусия, Пако Торонхо, Мерче Эсмеральда, Хоакин Кортес, Монео, Агухета, Марио Майа, Антонио Тоскано, Фернанда де Утрера, Хосе Менесе, Энрике Моренте, Фарруко, Чоколате, Фаррукито, Кармен Линарес, Хуана ла дель Ревуэло, Ремедиос Амайа, Аурора Варгас, Ла Маканита, Лоле и Мануэль, Матильде Кораль, Чано Лобато, Потито, Дукенде, Белен Майа, Мансанита, Кетама, Мануэла Карраско, Эль Торта, Мораито Чико
Описание: Фильм был снят в здании бывшей железнодорожной станции. Диктор рассказывает нам о происхождении фламенко и, среди света и теней, и той атмосферой, которая нас окружает, исполняются различные стили фламенко.
Булерии, танго, фанданго, алегрии, мартинете, румба ... исполненные великими мастерами этого жанра, среди которых, Ла Пакера де Херес, Пако де Лусия, Маноло Санлукар, Хоакин Кортес, Фарруко, Чоколате, Мерче Эсмеральда, Кармен Линарес, Пако Торонхо, Фернанда де Утрера, Чано Лобато, Кетама и многие другие
Фильм Фламенко, без сомнения, представляет огромный интерес не только для специалистов фламенко и любителей испанской музыки, но и для всех тех, кто интересуется культурными традициями Испании и хочет погрузиться в мир, полный ярких красок и эмоций.

Качество видео: DVDRip - DVD5
Формат видео: AVI
Видео: 688x400 (1.72:1), 25 fps, XviD build 73 ~1888 kbps avg, 0.27 bit/pixel
Аудио: 48 kHz, AC3 Dolby Digital, 2/0 (L,R) ch, ~224 kbps

Фрагмент субтитров

258
00:53:09,367 --> 00:53:17,843
ай, я верю в то,
что даже не почувствовал бы её,
259
00:53:56,007 --> 00:54:05,643
Смерть прошла рядом со мной,
260
00:54:13,887 --> 00:54:21,077
смерть прошла рядом со мной,
261
00:54:21,327 --> 00:54:25,957
и я сказал ей,
что готов принять её,
262
00:54:27,727 --> 00:54:33,120
и тогда она оставила меня,
я стоял как вкопанный
263
00:54:33,447 --> 00:54:37,679
ай, душа моя,
264
00:54:38,287 --> 00:54:44,556
и тогда она оставила меня,
я стоял как вкопанный
265
00:55:30,127 --> 00:55:42,119
Какое горе в моей душе,
266
00:55:48,807 --> 00:55:57,886
какое горе в моей душе,
ведь умерла моя мать
267
00:55:59,767 --> 00:56:07,355
сегодня на рассвете
268
00:56:07,527 --> 00:56:19,598
душа моя,
сегодня на рассвете

MediaInfo

Общее
Полное имя : H:\Flamenco.1995.dvdrip_[1.46]_[teko]\Flamenco.1995.dvdrip_[1.46].avi
Формат : AVI
Формат/Информация : Audio Video Interleave
Размер файла : 1,46 Гбайт
Продолжительность : 1 ч. 38 м.
Общий поток : 2122 Кбит/сек
Программа кодирования : VirtualDubMod 1.5.10.3 | www.virtualdub-fr.org || (build 2550/release)
Библиотека кодирования : VirtualDubMod build 2550/release
Видео
Идентификатор : 0
Формат : MPEG-4 Visual
Профиль формата : Advanced Simple@L5
Параметр BVOP формата : 1
Параметр QPel формата : Нет
Параметр GMC формата : Без точки перехода
Параметр матрицы формата : Выборочная
Идентификатор кодека : XVID
Идентификатор кодека/Подсказка : XviD
Продолжительность : 1 ч. 38 м.
Битрейт : 1889 Кбит/сек
Ширина : 688 пикселей
Высота : 400 пикселей
Соотношение сторон : 1,720
Частота кадров : 25,000 кадров/сек
Цветовое пространство : YUV
Субдискретизация насыщенности : 4:2:0
Битовая глубина : 8 бит
Тип развёртки : Прогрессивная
Метод сжатия : С потерями
Бит/(Пиксели*Кадры) : 0.275
Размер потока : 1,30 Гбайт (89%)
Библиотека кодирования : XviD 73
Аудио
Идентификатор : 1
Формат : AC-3
Формат/Информация : Audio Coding 3
Расширение режима : CM (complete main)
Параметр Endianness формата : Big
Идентификатор кодека : 2000
Продолжительность : 1 ч. 38 м.
Вид битрейта : Постоянный
Битрейт : 224 Кбит/сек
Каналы : 2 канала
Расположение каналов : Front: L R
Частота : 48,0 КГц
Битовая глубина : 16 бит
Метод сжатия : С потерями
Размер потока : 157 Мбайт (11%)
Выравнивание : Разделение по промежуткам
Продолжительность промежутка : 40 мс. (1,00 видеокадр)
Время предзагрузки промежутка : 500 мс.

Скриншоты




Показать сообщения:    

Текущее время: 05-Дек 11:29

Часовой пояс: UTC + 3


Вы не можете начинать темы
Вы не можете отвечать на сообщения
Вы не можете редактировать свои сообщения
Вы не можете удалять свои сообщения
Вы не можете голосовать в опросах
Вы не можете прикреплять файлы к сообщениям
Вы не можете скачивать файлы