Соль Земли / The Salt of the Earth (Джулиано Рибейру Сальгаду, Вим Вендерс / Juliano Ribeiro Salgado, Wim Wenders) [2014, Франция, Бразилия, Италия, документальный, биография, BDRip 720p] Sub Rus, Eng + Original Fre


Статистика раздачи [Обновить пиров]
Размер:  3.52 GB   |    Зарегистрирован:  1 год 2 месяца   |    Скачан:  0 раз

Полного источника не было: Никогда

 
   
 
 
 

[Цитировать]

Соль Земли / The Salt of the Earth
Страна: Франция, Бразилия, Италия
Жанр: документальный, биография
Год выпуска: 2014
Продолжительность: 01:50:01
Перевод: Субтитры
Оригинальная аудиодорожка: французский
Режиссер: Джулиано Рибейру Сальгаду, Вим Вендерс / Juliano Ribeiro Salgado, Wim Wenders
В ролях: Себастьян Сальгадо, Вим Вендерс, Джулиано Рибейру Сальгаду, Хьюго Барбье, Жак Бартелеми, Лейла Ваник Сальгадо.
Описание: Взгляните на мир глазами Себастьяна Сальгадо. Откройте для себя историю жизни, фотографии и Земли.
Сэмпл: http://sendfile.su/1147405
Качество видео: BDRip 720p - Скачать BDRemux 1080p
Формат видео: MKV
Видео: AVC, 1280x690 (1,85:1), 23,976 fps, 3852 kbps
Аудио: AC3, 48 kHz, 6 ch, 640 kbps
Формат субтитров: softsub (SRT)
Доп. информация о субтитрах: rus, eng

MediaInfo

Общее
Уникальный идентификатор : 231160693543164054231839959768677569348 (0xADE7EE1F5C1126D3B250690912A15344)
Полное имя : C:\The Salt of the Earth\The.Salt.of.the.Earth.mkv
Формат : Matroska
Версия формата : Version 4 / Version 2
Размер файла : 3,52 Гбайт
Продолжительность : 1 ч. 50 м.
Общий поток : 4583 Кбит/сек
Дата кодирования : UTC 2015-08-20 09:28:36
Программа кодирования : mkvmerge v7.8.0 ('River Man') 64bit built on Mar 27 2015 16:31:37
Библиотека кодирования : libebml v1.3.1 + libmatroska v1.4.2
_STATISTICS_WRITING_APP : mkvmerge v7.8.0 ('River Man') 64bit built on Mar 27 2015 16:31:37
_STATISTICS_WRITING_DATE_UTC : 2015-08-20 09:28:36
_STATISTICS_TAGS : BPS DURATION NUMBER_OF_FRAMES NUMBER_OF_BYTES
DURATION : 01:43:56.675000000
NUMBER_OF_FRAMES : 1186
NUMBER_OF_BYTES : 76646
Видео
Идентификатор : 1
Формат : AVC
Формат/Информация : Advanced Video Codec
Профиль формата : High@L4.1
Параметр CABAC формата : Да
Параметр ReFrames формата : 9 кадров
Идентификатор кодека : V_MPEG4/ISO/AVC
Продолжительность : 1 ч. 50 м.
Битрейт : 3852 Кбит/сек
Ширина : 1280 пикселей
Высота : 690 пикселей
Соотношение сторон : 1,85:1
Режим частоты кадров : Постоянный
Частота кадров : 23,976 кадра/сек
Цветовое пространство : YUV
Субдискретизация насыщенности : 4:2:0
Битовая глубина : 8 бит
Тип развёртки : Прогрессивная
Бит/(Пиксели*Кадры) : 0.182
Размер потока : 2,96 Гбайт (84%)
Библиотека кодирования : x264 core 142 r2479 dd79a61
Настройки программы : cabac=1 / ref=9 / deblock=1:-1:-1 / analyse=0x3:0x133 / me=umh / subme=10 / psy=1 / psy_rd=1.00:0.10 / mixed_ref=1 / me_range=32 / chroma_me=1 / trellis=2 / 8x8dct=1 / cqm=0 / deadzone=21,11 / fast_pskip=0 / chroma_qp_offset=-3 / threads=12 / lookahead_threads=3 / sliced_threads=0 / nr=0 / decimate=0 / interlaced=0 / bluray_compat=0 / constrained_intra=0 / bframes=16 / b_pyramid=2 / b_adapt=2 / b_bias=0 / direct=3 / weightb=1 / open_gop=0 / weightp=2 / keyint=250 / keyint_min=23 / scenecut=40 / intra_refresh=0 / rc_lookahead=80 / rc=crf / mbtree=0 / crf=17.0 / qcomp=0.75 / qpmin=0 / qpmax=69 / qpstep=4 / vbv_maxrate=38000 / vbv_bufsize=30000 / crf_max=0.0 / nal_hrd=none / filler=0 / ip_ratio=1.40 / pb_ratio=1.30 / aq=1:0.90
Язык : English
Default : Да
Forced : Нет
_STATISTICS_WRITING_APP : mkvmerge v7.8.0 ('River Man') 64bit built on Mar 27 2015 16:31:37
_STATISTICS_WRITING_DATE_UTC : 2015-08-20 09:28:36
_STATISTICS_TAGS : BPS DURATION NUMBER_OF_FRAMES NUMBER_OF_BYTES
DURATION : 01:50:01.303000000
NUMBER_OF_FRAMES : 158273
NUMBER_OF_BYTES : 3251822453
Аудио
Идентификатор : 2
Формат : AC-3
Формат/Информация : Audio Coding 3
Расширение режима : CM (complete main)
Параметр Endianness формата : Big
Идентификатор кодека : A_AC3
Продолжительность : 1 ч. 50 м.
Вид битрейта : Постоянный
Битрейт : 640 Кбит/сек
Каналы : 6 каналов
Расположение каналов : Front: L C R, Side: L R, LFE
Частота : 48,0 КГц
Битовая глубина : 16 бит
Метод сжатия : С потерями
Размер потока : 504 Мбайт (14%)
Заголовок : French
Язык : French
Default : Да
Forced : Нет
Текст #1
Идентификатор : 3
Формат : UTF-8
Идентификатор кодека : S_TEXT/UTF8
Идентификатор кодека/Информация : UTF-8 Plain Text
Default : Да
Forced : Нет
Текст #2
Идентификатор : 4
Формат : UTF-8
Идентификатор кодека : S_TEXT/UTF8
Идентификатор кодека/Информация : UTF-8 Plain Text
Default : Нет
Forced : Нет
Меню
00:00:00.000 : en:00:00:00.000
00:06:57.917 : en:00:06:57.917
00:17:19.413 : en:00:17:19.413
00:29:31.728 : en:00:29:31.728
00:39:03.508 : en:00:39:03.508
00:47:38.105 : en:00:47:38.105
01:03:36.062 : en:01:03:36.062
01:11:35.958 : en:01:11:35.958
01:19:49.660 : en:01:19:49.660
01:27:34.124 : en:01:27:34.124
01:37:04.652 : en:01:37:04.652
01:45:06.509 : en:01:45:06.509

Образец субтитров

323
00:28:51,538 --> 00:28:55,874
"Другие Америки" отняли у Себастьяна восемь лет.
324
00:28:56,168 --> 00:28:59,212
В этой поездке в глухую Южную Америку
325
00:28:59,337 --> 00:29:03,466
он просто исчез на довольно длительное время.
326
00:29:03,968 --> 00:29:07,720
Джулиан вырос с отцом, который почти всегда отсутствует.
327
00:29:08,264 --> 00:29:11,683
Его родители хотя бы могли вести переписку.
328
00:29:11,810 --> 00:29:15,938
Это было еще до интернета.
329
00:29:17,357 --> 00:29:20,317
Каждый раз, когда он возвращался домой, увидеть свою семью
330
00:29:20,443 --> 00:29:23,111
и редактировать свои фотографии с Лейлой,
331
00:29:23,362 --> 00:29:26,950
Себастьян казался большим авантюристом сыну.
332
00:29:27,076 --> 00:29:30,954
Супергерой, но не фотограф.
333
00:29:31,080 --> 00:29:32,079
И снято!
334
00:29:33,623 --> 00:29:36,709
Тридцать лет спустя,
335
00:29:36,835 --> 00:29:40,423
наконец, я присоединился к своему отцу в одном из его путешествий.
336
00:29:41,090 --> 00:29:42,215
Остров Врангеля,
337
00:29:42,342 --> 00:29:45,427
необитаемый остров в Северном Ледовитом океане.
338
00:29:46,346 --> 00:29:48,263
Себастьян надеялся сфотографировать
339
00:29:48,389 --> 00:29:51,183
последнюю стаю огромных моржей.
340
00:29:52,560 --> 00:29:55,395
Я хотел узнать, кто этот человек,
341
00:29:55,521 --> 00:29:59,233
Человек известный мне только как отец.
342
00:30:01,237 --> 00:30:07,326
Я хотел найти в нем фотографа, авантюриста, для начала.

Скриншот c названием фильма

Скриншоты

[teatrix.ru].t4320.torrent 
Торрент: Зарегистрирован [ 2015-10-07 20:05 ] · 6D36A4D18DC12037321A9B09C3AC7C911F961788

Скачать .torrent

Скачать

18 KB

Статус: проверено
Скачан: 0 раз
Размер: 3.52 GB
terms.php



Быстрый ответ

Имя:

      
Для отправки сообщений необходимо включить JavaScript
Показать сообщения:    

Текущее время: 10-Дек 13:52

Часовой пояс: UTC + 3


Вы можете начинать темы
Вы можете отвечать на сообщения
Вы не можете редактировать свои сообщения
Вы не можете удалять свои сообщения
Вы не можете голосовать в опросах
Вы не можете прикреплять файлы к сообщениям
Вы можете скачивать файлы