Нежно... / Dolce... (Александр Сокуров / Aleksandr Sokurov) [1999, Россия, документальный, DVDRip]


Статистика раздачи [Обновить пиров]
Размер:  744 MB   |    Зарегистрирован:  1 год 1 месяц   |    Скачан:  0 раз

Полного источника не было: Никогда

 
   
 
 
 

[Цитировать]

Нежно... / Dolce...
Страна: Россия
Жанр: документальный
Год выпуска: 1999
Продолжительность: 01:01:00
Перевод: Не требуется
Cубтитры: нет

Режиссер: Александр Сокуров / Aleksandr Sokurov
Описание: Из жизни семьи японского писателя Тосио Симао.
Фильм посвящен реальным людям: известному японскому писателю Тосио Симао, умершему в 1986 году, его вдове и дочери. Документальная канва лишь оттеняет особый глубинный ракурс жизнеописания, видео использовано как способ почти интимного проникновения во внутренний мир героев. Перипетии биографии и творчества — объективные факты жизни известного человека даны пунктиром сюжета, в них квинтессенция авторских впечатлений о стране и людях. Главная ось повествования проходит через лирический монолог главной героини — Михо Симао, жены писателя, живущей с больной дочерью на уединенном острове в океане и сторонящейся контактов с посторонними людьми. Открытие личности: драма рефлексии и катарсис духовного обнажения — происходит как важнейшее событие затаенной, замкнутой в себе женской судьбы, в которой поступки не так значимы, как импульсы чувств.
Импрессионистскими штрихами режиссер проявляет контуры воспоминаний, контрасты настроения, оттенки психологических состояний. Объектив видеокамеры не только фиксирует внутреннее движение, «подводное течение» действия, но как бы провоцирует его: чуткое внимание, целомудренная пристальность и сочувствие режиссера — единственные залоги доверия для этой необычной модели.
Прикасаться к этому миру, чтобы передать его изысканное благоухание и изощренную боль, можно лишь как в музыкальной лирике — нежно — dolce. В сущности, это диалог автора и его модели. Каноны японской графики и европейской музыки слиты в необычный сплав нового поэтического жанра — видеопоэмы.
Александра Тучинская
Качество видео: DVDRip
Формат видео: AVI
Видео: 432x480 (0.90:1), 23.976 fps, XviD build 73 ~1471 kbps avg, 0.30 bit/pixel
Аудио: 48 kHz, AC3 Dolby Digital, 2/0 (L,R) ch, ~224 kbps

MediaInfo

Общее
Полное имя : H:\Dolce....1999.dvdrip_[745]_[teko].avi
Формат : AVI
Формат/Информация : Audio Video Interleave
Размер файла : 744 Мбайт
Продолжительность : 1 ч. 1 м.
Общий поток : 1705 Кбит/сек
Программа кодирования : VirtualDubMod 1.5.10.3 | www.virtualdub-fr.org || (build 2550/release)
Библиотека кодирования : VirtualDubMod build 2550/release
Видео
Идентификатор : 0
Формат : MPEG-4 Visual
Профиль формата : Advanced Simple@L5
Параметр BVOP формата : 2
Параметр QPel формата : Нет
Параметр GMC формата : Без точки перехода
Параметр матрицы формата : Выборочная
Идентификатор кодека : XVID
Идентификатор кодека/Подсказка : XviD
Продолжительность : 1 ч. 1 м.
Битрейт : 1472 Кбит/сек
Ширина : 432 пикселя
Высота : 480 пикселей
Соотношение сторон : 0,900
Частота кадров : 23,976 кадра/сек
Цветовое пространство : YUV
Субдискретизация насыщенности : 4:2:0
Битовая глубина : 8 бит
Тип развёртки : Прогрессивная
Метод сжатия : С потерями
Бит/(Пиксели*Кадры) : 0.296
Размер потока : 642 Мбайт (86%)
Библиотека кодирования : XviD 73
Аудио
Идентификатор : 1
Формат : AC-3
Формат/Информация : Audio Coding 3
Расширение режима : CM (complete main)
Параметр Endianness формата : Big
Идентификатор кодека : 2000
Продолжительность : 1 ч. 1 м.
Вид битрейта : Постоянный
Битрейт : 224 Кбит/сек
Каналы : 2 канала
Расположение каналов : Front: L R
Частота : 48,0 КГц
Битовая глубина : 16 бит
Метод сжатия : С потерями
Размер потока : 97,8 Мбайт (13%)
Выравнивание : Разделение по промежуткам
Продолжительность промежутка : 42 мс. (1,00 видеокадр)
Время предзагрузки промежутка : 500 мс.

Скриншоты

[teatrix.ru].t4322.torrent 
Торрент: Зарегистрирован [ 2015-10-07 20:05 ] · 2ED4289A774A519C8FC87E303D78BA9D53CE44AE

Скачать .torrent

Скачать

15 KB

Статус: проверено
Скачан: 0 раз
Размер: 744 MB
terms.php



Быстрый ответ

Имя:

      
Для отправки сообщений необходимо включить JavaScript
Показать сообщения:    

Текущее время: 07-Дек 17:29

Часовой пояс: UTC + 3


Вы можете начинать темы
Вы можете отвечать на сообщения
Вы не можете редактировать свои сообщения
Вы не можете удалять свои сообщения
Вы не можете голосовать в опросах
Вы не можете прикреплять файлы к сообщениям
Вы можете скачивать файлы