Смиренная жизнь / A Humble Life (Александр Сокуров / Aleksandr Sokurov) [1997, Россия, документальный, DVDRip]


Статистика раздачи [Обновить пиров]
Размер:  1.37 GB   |    Зарегистрирован:  1 год 2 месяца   |    Скачан:  1 раз

Полного источника не было: 3 месяца 17 дней

 
   
 
 
 

[Цитировать]

Смиренная жизнь / A Humble Life
Страна: Россия
Жанр: документальный
Год выпуска: 1997
Продолжительность: 01:16:17
Перевод: Не требуется
Cубтитры: нет

Режиссер: Александр Сокуров / Aleksandr Sokurov
Описание: Миф об утерянной гармонии, которая, все же, всегда с нами, только мы разучились ее ощущать, — Сокуров развивает в этой картине на материале документальном и, на первый взгляд, вполне телевизионном. Весь фильм это неспешный и подробный репортаж из старого дома, затерявшегося в горах, в деревне Аска префектуры Нара в Японии, где живет одинокая старая женщина по имени Умено Мацуеси. Но художественная задача режиссера прямо противоположна познавательно–развлекательному комплексу телевизионной информации. Дело не только в том, что этот объект, этот человек не смог бы заинтересовать ни одну телегруппу ни в одной стране (и, может быть, менее всего — в современной Японии).
Камера Сокурова не наблюдает за персонажем, не расспрашивает, не застигает врасплох, но извлекает из тривиальных подробностей физической реальности этой угасающей жизни, из архаического быта поэтический образ непрерывного бытия. Образ эпический и лирический одновременно. Изысканная простота японского пейзажа, интерьера, серии портретов здесь менее всего выполняет функцию couleur local. Но это знак идеальной техники идеального изображения — авторского вживания в образ. А идеальное созвучие души и духа — вслушивание — Сокуров делает лирической кодой своего фильма. В финале героиня, не произнесшая в картине ни одного слова, читает перед замершей видеокамерой простодушные и горестные стихи — танку — собственного сочинения, которые звучат как молитва.
Александра Тучинская
Качество видео:DVDRip
Формат видео: AVI
Видео: 624x480 (1.30:1), 23.976 fps, XviD build 73 ~2330 kbps avg, 0.32 bit/pixel
Аудио: 48 kHz, AC3 Dolby Digital, 2/0 (L,R) ch, ~224 kbps

MediaInfo

Общее
Полное имя : H:\Смиренная.жизнь.1997.dvdrip_[1.37]_[teko].avi
Формат : AVI
Формат/Информация : Audio Video Interleave
Размер файла : 1,37 Гбайт
Продолжительность : 1 ч. 16 м.
Общий поток : 2564 Кбит/сек
Программа кодирования : VirtualDubMod 1.5.10.3 | www.virtualdub-fr.org || (build 2550/release)
Библиотека кодирования : VirtualDubMod build 2550/release
Видео
Идентификатор : 0
Формат : MPEG-4 Visual
Профиль формата : Advanced Simple@L5
Параметр BVOP формата : 1
Параметр QPel формата : Нет
Параметр GMC формата : Без точки перехода
Параметр матрицы формата : Выборочная
Идентификатор кодека : XVID
Идентификатор кодека/Подсказка : XviD
Продолжительность : 1 ч. 16 м.
Битрейт : 2331 Кбит/сек
Ширина : 624 пикселя
Высота : 480 пикселей
Соотношение сторон : 4:3
Частота кадров : 23,976 кадра/сек
Цветовое пространство : YUV
Субдискретизация насыщенности : 4:2:0
Битовая глубина : 8 бит
Тип развёртки : Прогрессивная
Метод сжатия : С потерями
Бит/(Пиксели*Кадры) : 0.325
Размер потока : 1,24 Гбайт (91%)
Библиотека кодирования : XviD 73
Аудио
Идентификатор : 1
Формат : AC-3
Формат/Информация : Audio Coding 3
Расширение режима : CM (complete main)
Параметр Endianness формата : Big
Идентификатор кодека : 2000
Продолжительность : 1 ч. 16 м.
Вид битрейта : Постоянный
Битрейт : 224 Кбит/сек
Каналы : 2 канала
Расположение каналов : Front: L R
Частота : 48,0 КГц
Битовая глубина : 16 бит
Метод сжатия : С потерями
Размер потока : 122 Мбайт (9%)
Выравнивание : Разделение по промежуткам
Продолжительность промежутка : 42 мс. (1,00 видеокадр)
Время предзагрузки промежутка : 500 мс.

Скриншоты

[teatrix.ru].t4323.torrent 
Торрент: Зарегистрирован [ 2015-10-07 20:05 ] · F433073B60DF5D33E93AF167A614E9CD6A88D552

Скачать .torrent

Скачать

14 KB

Статус: проверено
Скачан: 1 раз
Размер: 1.37 GB
terms.php



Быстрый ответ

Имя:

      
Для отправки сообщений необходимо включить JavaScript
Показать сообщения:    

Текущее время: 11-Дек 16:51

Часовой пояс: UTC + 3


Вы можете начинать темы
Вы можете отвечать на сообщения
Вы не можете редактировать свои сообщения
Вы не можете удалять свои сообщения
Вы не можете голосовать в опросах
Вы не можете прикреплять файлы к сообщениям
Вы можете скачивать файлы