Восточная элегия / Oriental Elegy (Александр Сокуров / Aleksandr Sokurov) [1996, Россия, документальный, DVDRip]


Статистика раздачи [Обновить пиров]
Размер:  648 MB   |    Зарегистрирован:  1 год 2 месяца   |    Скачан:  0 раз

Полного источника не было: Никогда

 
   
 
 
 

[Цитировать]

Восточная элегия / Oriental Elegy
Страна: Россия
Жанр: документальный
Год выпуска: 1996
Продолжительность: 00:44:33
Перевод: Не требуется
Cубтитры: нет

Режиссер: Александр Сокуров / Alexandr Sokurov
Описание: «Восточная элегия» — сон о некоем прекрасном, окутанном туманом острове, где автору, пожалуй, уютнее, чем на земле, где можно беседовать с душами умерших. Из загадочной черно-белой акварели неповторимых сокуровских пейзажей, из японской поэзии и музыки Малера, Чайковского и Вагнера, из удивительных лиц неактеров и, главное, из творческих, духовных усилий Автора — рождается еще один ответ на вечный вопрос о том, кто мы, и откуда, и зачем». Нина Агишева
Качество видео: DVDRip
Формат видео: AVI
Видео: 624x480 (1.30:1), 23.976 fps, XviD build 73 ~1799 kbps avg, 0.25 bit/pixel
Аудио: 48 kHz, AC3 Dolby Digital, 2/0 (L,R) ch, ~224 kbps

MediaInfo

Общее
Полное имя : H:\Восточная.элегия.1996.dvdrip_[700]_[teko].avi
Формат : AVI
Формат/Информация : Audio Video Interleave
Размер файла : 648 Мбайт
Продолжительность : 44 м.
Общий поток : 2033 Кбит/сек
Программа кодирования : VirtualDubMod 1.5.10.3 | www.virtualdub-fr.org || (build 2550/release)
Библиотека кодирования : VirtualDubMod build 2550/release
Видео
Идентификатор : 0
Формат : MPEG-4 Visual
Профиль формата : Advanced Simple@L5
Параметр BVOP формата : 2
Параметр QPel формата : Нет
Параметр GMC формата : Без точки перехода
Параметр матрицы формата : Выборочная
Идентификатор кодека : XVID
Идентификатор кодека/Подсказка : XviD
Продолжительность : 44 м.
Битрейт : 1800 Кбит/сек
Ширина : 624 пикселя
Высота : 480 пикселей
Соотношение сторон : 4:3
Частота кадров : 23,976 кадра/сек
Цветовое пространство : YUV
Субдискретизация насыщенности : 4:2:0
Битовая глубина : 8 бит
Тип развёртки : Прогрессивная
Метод сжатия : С потерями
Бит/(Пиксели*Кадры) : 0.251
Размер потока : 574 Мбайт (89%)
Библиотека кодирования : XviD 73
Аудио
Идентификатор : 1
Формат : AC-3
Формат/Информация : Audio Coding 3
Расширение режима : CM (complete main)
Параметр Endianness формата : Big
Идентификатор кодека : 2000
Продолжительность : 44 м.
Вид битрейта : Постоянный
Битрейт : 224 Кбит/сек
Каналы : 2 канала
Расположение каналов : Front: L R
Частота : 48,0 КГц
Битовая глубина : 16 бит
Метод сжатия : С потерями
Размер потока : 71,4 Мбайт (11%)
Выравнивание : Разделение по промежуткам
Продолжительность промежутка : 42 мс. (1,00 видеокадр)
Время предзагрузки промежутка : 500 мс.

Скриншоты

[teatrix.ru].t4324.torrent 
Торрент: Зарегистрирован [ 2015-10-07 20:05 ] · 02042163F4C88D5BD1E66F748D358A8B09C7A11A

Скачать .torrent

Скачать

13 KB

Статус: проверено
Скачан: 0 раз
Размер: 648 MB
terms.php



Быстрый ответ

Имя:

      
Для отправки сообщений необходимо включить JavaScript
Показать сообщения:    

Текущее время: 08-Дек 09:05

Часовой пояс: UTC + 3


Вы можете начинать темы
Вы можете отвечать на сообщения
Вы не можете редактировать свои сообщения
Вы не можете удалять свои сообщения
Вы не можете голосовать в опросах
Вы не можете прикреплять файлы к сообщениям
Вы можете скачивать файлы