Марадона / Maradona (Эмир Кустурица / Emir Kusturica) [2008, Франция, Испания, документальный, DVDRip] VO


Статистика раздачи [Обновить пиров]
Размер:  1.46 GB   |    Зарегистрирован:  1 год 2 месяца   |    Скачан:  0 раз

Полного источника не было: Никогда

 
   
 
 
 

[Цитировать]

Марадона / Maradona
Страна: Франция / Испания, Estudios Piccaso
Жанр: Документальный
Год выпуска: 2008
Продолжительность: 01:32:41
Перевод: Студийный (одноголосый закадровый)
Cубтитры: нет
Режиссер: Эмир Кустурица / Emir Kusturica
В ролях: Эмир Кустурица, Диего Армандо Марадона
Описание: Лента состоит из семи частей. Каждая из них носит название, указывающее на один из смертных грехов. По словам самого режиссера, он работал над фильмом с большим удовольствием, потому что «между Латинской Америкой и Балканами есть большая схожесть». Однако работа была тяжелой. В последние месяцы Кустурица много времени уделял поездкам в Аргентину, где расспрашивал великого футболиста о его непростых взаимоотношениях с наркотиками. Во время одного из посещений Аргентины верные себе Диего и Эмир приняли участие в антиамериканском митинге.
Доп. информация: Хронологический принцип не соблюдается. Хроника сочетается с диалогами, музыкой, мини-роликами. Отдельно освещены борьба с наркотической зависимостью, семья, дружба с Уго Чавесом и Фиделем Кастро, политические взгляды, история с «рукой Бога».

Сэмпл: http://multi-up.com/1062295
Качество видео: DVDRip
Формат видео: AVI
Видео: XviD, 720x400, 25,000 кадров/сек, 1812 Кбит/сек
Аудио: AC-3, 48,0 КГц, 6 каналов, 448 Кбит/сек

MediaInfo

Формат : AVI
Формат/Информация : Audio Video Interleave
Размер файла : 1,46 Гбайт
Продолжительность : 1 ч. 32 м.
Общий поток : 2269 Кбит/сек
Программа кодирования : VirtualDubMod 1.5.10.2 (build 2540/release)
Библиотека кодирования : VirtualDubMod build 2540/release
Видео
Идентификатор : 0
Формат : MPEG-4 Visual
Профиль формата : Advanced Simple@L5
Параметр BVOP формата : 1
Параметр QPel формата : Нет
Параметр GMC формата : Без точки перехода
Параметр матрицы формата : Default (H.263)
Идентификатор кодека : XVID
Идентификатор кодека/Подсказка : XviD
Продолжительность : 1 ч. 32 м.
Битрейт : 1812 Кбит/сек
Ширина : 720 пикселей
Высота : 400 пикселей
Соотношение сторон : 16:9
Частота кадров : 25,000 кадров/сек
Цветовое пространство : YUV
Субдискретизация насыщенности : 4:2:0
Битовая глубина : 8 бит
Тип развёртки : Прогрессивная
Метод сжатия : С потерями
Бит/(Пиксели*Кадры) : 0.252
Размер потока : 1,16 Гбайт (80%)
Библиотека кодирования : XviD 1.2.0.dev47 (UTC 2006-11-01)
Аудио
Идентификатор : 1
Формат : AC-3
Формат/Информация : Audio Coding 3
Расширение режима : CM (complete main)
Параметр Endianness формата : Big
Идентификатор кодека : 2000
Продолжительность : 1 ч. 32 м.
Вид битрейта : Постоянный
Битрейт : 448 Кбит/сек
Каналы : 6 каналов
Расположение каналов : Front: L C R, Side: L R, LFE
Частота : 48,0 КГц
Битовая глубина : 16 бит
Метод сжатия : С потерями
Размер потока : 295 Мбайт (20%)
Выравнивание : Разделение по промежуткам
Продолжительность промежутка : 40 мс. (1,00 видеокадр)
Время предзагрузки промежутка : 500 мс.

Скриншот c названием фильма

Скриншоты






[teatrix.ru].t4325.torrent 
Торрент: Зарегистрирован [ 2015-10-07 20:05 ] · AD026A8EEA8DD852EDDA6BE48AB50CD3D494872B

Скачать .torrent

Скачать

30 KB

Статус: проверено
Скачан: 0 раз
Размер: 1.46 GB
terms.php



Быстрый ответ

Имя:

      
Для отправки сообщений необходимо включить JavaScript
Показать сообщения:    

Текущее время: 11-Дек 13:03

Часовой пояс: UTC + 3


Вы можете начинать темы
Вы можете отвечать на сообщения
Вы не можете редактировать свои сообщения
Вы не можете удалять свои сообщения
Вы не можете голосовать в опросах
Вы не можете прикреплять файлы к сообщениям
Вы можете скачивать файлы