Три песни о Ленине / Three Songs About Lenin (Дзига Вертов (Давид Кауфман) / Dziga Vertov) [1934, СССР, Документальный, BDRip]


Статистика раздачи [Обновить пиров]
Размер:  1.1 GB   |    Зарегистрирован:  1 год 2 месяца   |    Скачан:  0 раз

Полного источника не было: Никогда

 
   
 
 
 

[Цитировать]

Три песни о Ленине / Three Songs About Lenin
Жанр: Документальный
Страна: СССР
Студия: Межрабпомфильм
Год выпуска: 1934
Продолжительность: 01:00:52
Перевод: Не требуется
Cубтитры: нет
Режиссер: Дзига Вертов (Давид Кауфман) / Dziga Vertov
Описание: Фильм о том, как советский народ любит Владимира Ильича Ленина. Песня «В чёрной тюрьме было лицо моё» — о том, как Ленин преобразил Среднюю Азию. Феодальные и исламские пережитки были уничтожены, на их место пришли современное образование, новая техника и социалистические отношения. Во второй песне — «Мы любили его…» — показана реакция всех народов Союза на смерть Ленина. Кинохроника похорон и картины жизни во всех уголоках Родины перемешиваются, и создаётся впечатление, что смерть Ленина приостановила жизнь во всём Советском Союзе. Третья песня — «В большом каменном городе» — о том, как народы Союза продолжают дело Ленина и какие громадные достижение произошли в стране после его смерти. Интервью с передовиками производства, кадры великих строек, радость народа — всё это доказывает, что Ленин жил и трудился не зря…
Фильм очень поэтичен и включает старинные песни Востока.
Дополнительная информация: Релиз:
Автор рипа: pmv
Исходник BD с раздачи http://rutracker.org/forum/viewtopic.php?t=5047470 от rainbow.n , за что ему Большое Спасибо!
IMDb = 6,8/10 from 407 users - http://www.imdb.com/title/tt0025911/
Кинопоиск = 6.532 (118) - http://www.kinopoisk.ru/film/42302/
* В данной раздаче представлена полная версия фильма, где присутствуют кадры, запечатлевшие И.Сталина (видно на трёх скринах и в сэмпле). В других, более ранних раздачах прошлых лет, эти кадры отсутствуют (вырезаны). Версия с титрами и встроенными субтитрами на английском языке на 2 минуты короче, чем в данной раздаче.
* Для большей наглядности различия 2 версий фильма под спойлером "Сравнение" представлены 3 кадра - с титрами на английском языке (раздача anonуmous) и на русском (данная раздача).
Премьера (СССР): 23 июля 1934
Премьера (мир): 6 Ноября 1934 (США)
Сценарист: Дзига Вертов
Операторы: Дмитрий Суренский, Марк Магидсон, Бенцион Монастырский
Композитор: Юрий (Георгий) Шапорин
ПРОСЬБА к СКАЧАВШИМ. НЕ УХОДИТЕ С РАЗДАЧИ, ПОМОГИТЕ ДРУГИМ СКАЧАТЬ!!!
Качество видео: BDRip
Формат видео: AVI
Видео: 720x544 (1.32:1), 24 fps, XviD build 73 ~2315 kbps avg, 0.25 bit/pixel
Аудио: 48 kHz, AC3 Dolby Digital, 2/0 (L,R) ch, ~256.00 kbps avg

MediaInfo

General
Complete name : D:\torrents\Три-песни-о-Ленине-Дзига-Вертов-1934.avi
Format : AVI
Format/Info : Audio Video Interleave
File size : 1.10 GiB
Duration : 1h 0mn
Overall bit rate : 2 581 Kbps
Writing library : VirtualDub build 35576/release
Video
ID : 0
Format : MPEG-4 Visual
Format profile : Advanced Simple@L5
Format settings, BVOP : Yes
Format settings, QPel : No
Format settings, GMC : No warppoints
Format settings, Matrix : Default (H.263)
Codec ID : XVID
Codec ID/Hint : XviD
Duration : 1h 0mn
Bit rate : 2 315 Kbps
Width : 720 pixels
Height : 544 pixels
Display aspect ratio : 4:3
Frame rate : 24.000 fps
Resolution : 8 bits
Colorimetry : 4:2:0
Scan type : Progressive
Bits/(Pixel*Frame) : 0.246
Stream size : 1 008 MiB (90%)
Writing library : XviD 73
Audio
ID : 1
Format : AC-3
Format/Info : Audio Coding 3
Codec ID : 2000
Duration : 1h 0mn
Bit rate mode : Constant
Bit rate : 256 Kbps
Channel(s) : 2 channels
Channel positions : Front: L R
Sampling rate : 48.0 KHz
Stream size : 111 MiB (10%)
Alignment : Aligned on interleaves
Interleave, duration : 42 ms (1.00 video frame)
Interleave, preload duration : 512 ms

Скриншот c названием фильма

Сравнение с раздачей anonуmous от 25-Августа-2006

anonymous, DVDRip, 640 x 480, 804.7 Mb < > CaCa48, BDRip, 720 х 544, 1.10 Gb
http://rutracker.org/forum/viewtopic.php?t=64930
http://screenshotcomparison.com/comparison/136995
Сравнительные кадры 2 версий фильма - с титрами на английском языке (раздача anonуmous) и на русском (данная раздача):


МОИ РАЗДАЧИ НА РУТРЕКЕРЕ: http://rutracker.org/forum/tracker.php?rid=27390064
[teatrix.ru].t4326.torrent 
Торрент: Зарегистрирован [ 2015-10-07 20:05 ] · 296F9E0BE432957833820FABBB412A22C177C6F0

Скачать .torrent

Скачать

12 KB

Статус: проверено
Скачан: 0 раз
Размер: 1.1 GB
terms.php



Быстрый ответ

Имя:

      
Для отправки сообщений необходимо включить JavaScript
Показать сообщения:    

Текущее время: 10-Дек 15:45

Часовой пояс: UTC + 3


Вы можете начинать темы
Вы можете отвечать на сообщения
Вы не можете редактировать свои сообщения
Вы не можете удалять свои сообщения
Вы не можете голосовать в опросах
Вы не можете прикреплять файлы к сообщениям
Вы можете скачивать файлы