Шестая часть мира / One-Sixth Of The World (Дзига Вертов (Давид Кауфман) / Dziga Vertov) [1926, СССР, Документальный, история, немое кино, BDRip] + Sub Eng


Статистика раздачи [Обновить пиров]
Размер:  1.4 GB   |    Зарегистрирован:  1 год 2 месяца   |    Скачан:  0 раз

Полного источника не было: Никогда

 
   
 
 
 

[Цитировать]

Шестая часть мира / One-Sixth Of The World
Жанр: Документальный, история, немое кино
Страна: СССР
Студия: Госкино (Совкино)
Год выпуска: 1926
Продолжительность: 01:24:08
Перевод: Не требуется
Cубтитры: английские (неотключаемые)
Режиссер: Дзига Вертов (Давид Кауфман) / Dziga Vertov
Описание: В марте 1925 года классику мирового кино Дзиге Вертову и его группе поручили заказ на киноленту о внешнеторговом предприятии Госторге, который осуществлял экспорт исконно русских товаров. Понимая рекламный характер работы, Вертов, тем не менее, оценил размах выдвинутых предложений. Он разослал киноэкспедиции во многие регионы СССР и из снятого материала смонтировал один из своих шедевров - "Шестую часть мира". Съемка фильмов о Госторге велась по всему Союзу: отстрел пушнины на Крайнем Севере, уборка льна на севере и в центральных районах, выращивание овец для выделки каракуля на Кавказе, выращивание хлеба в черноземных и южных житницах, погрузка товаров в крупнейших портах. Да и само название картины мало вязалось с рекламно-госторговскими задачами (уже не говоря о финале фильма с поднимающимися на борьбу народами востока). Больше соответствовало вертовским планам - рассказать о человеке, вооруженном киноглазовским зрением.
Дополнительная информация: Релиз:
Автор рипа: pmv
Исходник BD с раздачи http://rutracker.org/forum/viewtopic.php?t=5047470 от rainbow.n , за что ему Большое Спасибо!
IMDb = 7,3/10 from 229 users - http://www.imdb.com/title/tt0017376/
Кинопоиск = 7.217 (170) - http://www.kinopoisk.ru/film/43742/

* Фильм из собрания ГФФ СССР.
* Интертитры на русском языке. Встроенные (неотключаемые) английские субтитры.
* Интертитры к фильму нарисовал Александр Родченко.
* Музыку к фильму написал Майкл Найман / Michael Nyman.
* Бюджет фильма составил около 80 000 руб., что в 2 раза превысило планируемые сметные расходы.
* В данной раздаче представлена полная версия фильма, где присутствуют кадры, запечатлевшие И.Сталина (видно на одном из скринов и в сэмпле). В других, более ранних раздачах прошлых лет, эти кадры отсутствуют (вырезаны).
Премьера (СССР): 31 декабря 1926
Сценарист: Дзига Вертов
Операторы: Михаил (Моисей) Кауфман, Иван Беляков, Самуил Бендерский, П.Зотов, Н.Константинов, Л.Лемберг, Н.Струков, И.Толчан
Музыкальное сопровождение: Майкл Найман / Michael Nyman
Монтажёры: Дзига Вертов, Eлизавета Свилова
ПРОСЬБА к СКАЧАВШИМ. НЕ УХОДИТЕ С РАЗДАЧИ, ПОМОГИТЕ ДРУГИМ СКАЧАТЬ!!!
Качество видео: BDRip
Формат видео: AVI
Видео: 720x544 (1.32:1), 24 fps, XviD build 73 ~2180 kbps avg, 0.23 bit/pixel
Аудио: 48 kHz, AC3 Dolby Digital, 2/0 (L,R) ch, ~192.00 kbps avg
Формат субтитров: hardsub (неотключаемые)

MediaInfo

General
Complete name : D:\torrents\Шестая-часть-мира-Дзига-Вертов-1926.avi
Format : AVI
Format/Info : Audio Video Interleave
File size : 1.40 GiB
Duration : 1h 24mn
Overall bit rate : 2 382 Kbps
Writing library : VirtualDub build 35576/release
Video
ID : 0
Format : MPEG-4 Visual
Format profile : Advanced Simple@L5
Format settings, BVOP : Yes
Format settings, QPel : No
Format settings, GMC : No warppoints
Format settings, Matrix : Default (H.263)
Codec ID : XVID
Codec ID/Hint : XviD
Duration : 1h 24mn
Bit rate : 2 181 Kbps
Width : 720 pixels
Height : 544 pixels
Display aspect ratio : 4:3
Frame rate : 24.000 fps
Resolution : 8 bits
Colorimetry : 4:2:0
Scan type : Progressive
Bits/(Pixel*Frame) : 0.232
Stream size : 1.28 GiB (92%)
Writing library : XviD 73
Audio
ID : 1
Format : AC-3
Format/Info : Audio Coding 3
Codec ID : 2000
Duration : 1h 24mn
Bit rate mode : Constant
Bit rate : 192 Kbps
Channel(s) : 2 channels
Channel positions : Front: L R
Sampling rate : 48.0 KHz
Stream size : 116 MiB (8%)
Alignment : Aligned on interleaves
Interleave, duration : 42 ms (1.00 video frame)
Interleave, preload duration : 512 ms

Скриншот c названием фильма

Сравнение с раздачей Skaramusch от 27-Декабря-2012

Skaramusch, DVDRip, 640 x 480, 1.015 Gb < > CaCa48, BDRip, 720 х 544, 1.40 Gb
http://rutracker.org/forum/viewtopic.php?t=4296361
http://screenshotcomparison.com/comparison/136856/
МОИ РАЗДАЧИ НА РУТРЕКЕРЕ: http://rutracker.org/forum/tracker.php?rid=27390064
[teatrix.ru].t4327.torrent 
Торрент: Зарегистрирован [ 2015-10-07 20:05 ] · CA345ED3E27CD131BEA96385FE28C1677711EF4E

Скачать .torrent

Скачать

15 KB

Статус: проверено
Скачан: 0 раз
Размер: 1.4 GB
terms.php



Быстрый ответ

Имя:

      
Для отправки сообщений необходимо включить JavaScript
Показать сообщения:    

Текущее время: 08-Дек 23:14

Часовой пояс: UTC + 3


Вы можете начинать темы
Вы можете отвечать на сообщения
Вы не можете редактировать свои сообщения
Вы не можете удалять свои сообщения
Вы не можете голосовать в опросах
Вы не можете прикреплять файлы к сообщениям
Вы можете скачивать файлы