Человек с киноаппаратом / The Man with a Movie Camera (Дзига Вертов (Давид Кауфман) / Dziga Vertov) [1929, СССР, Авангард - артхаус, киноэксперимент, немое кино, BDRip]


Статистика раздачи [Обновить пиров]
Размер:  1.08 GB   |    Зарегистрирован:  1 год 2 месяца   |    Скачан:  0 раз

Полного источника не было: Никогда

 
   
 
 
 

[Цитировать]

Человек с киноаппаратом / The Man with a Movie Camera
Жанр: Авангард-артхаус, киноэксперимент, немое кино
Страна: СССР
Студия: ВУФКУ (Одесская кинофабрика)
Год выпуска: 1929
Продолжительность: 01:07:07
Перевод: Не требуется
Cубтитры: нет
Режиссер: Дзига Вертов (Давид Кауфман) / Dziga Vertov
В ролях: Михаил (Моисей) Кауфман ... кинооператор
Описание: В кадре кинокамера снимает людей, места, объекты… Киноаппарат здесь является действующим лицом самого процесса съемки: в воздухе, под землей, в самой гуще событий… Киноглаз, который наблюдает, фиксирует малейшие нюансы, не давая оценки, не следуя сценарию. Он просто смотрит в мир и видит все, или, вернее, происходит видение!
Дополнительная информация: Релиз:
Автор рипа: pmv
Исходник BD с раздачи http://teatrix.ru/viewtopic.php?t=4331 от rainbow.n , за что ему Большое Спасибо!
IMDb = 8,4/10 from 13 180 users - http://www.imdb.com/title/tt0019760
Кинопоиск = 8.551 (3816) - http://www.kinopoisk.ru/film/45465

Премьера (СССР): 8 января 1929
Премьера (мир): 12 Maя 1929 (США)
Сценарист: Дзига Вертов
Операторы: Михаил Кауфман, Глеб Троянский
Музыкальное сопровождение: Майкл Найман / Michael Nyman
Монтажёры: Дзига Вертов, Eлизавета Свилова
* Аудиодорожка - в звуковом оформлении использована музыка Майкл Найман / Michael Nyman.
ПРОСЬБА к СКАЧАВШИМ. НЕ УХОДИТЕ С РАЗДАЧИ, ПОМОГИТЕ ДРУГИМ СКАЧАТЬ!!!
Качество видео: BDRip
Формат видео: AVI
Видео: 720x544 (1.32:1), 24 fps, XviD build 73 ~2108 kbps avg, 0.22 bit/pixel
Аудио: 48 kHz, AC3 Dolby Digital, 2/0 (L,R) ch, ~192.00 kbps avg

MediaInfo

General
Complete name : D:\torrents\ Человек-с-киноаппаратом-Дзига-Вертов-1929.avi
Format : AVI
Format/Info : Audio Video Interleave
File size : 1.08 GiB
Duration : 1h 7mn
Overall bit rate : 2 310 Kbps
Writing library : VirtualDub build 35576/release
Video
ID : 0
Format : MPEG-4 Visual
Format profile : Advanced Simple@L5
Format settings, BVOP : Yes
Format settings, QPel : No
Format settings, GMC : No warppoints
Format settings, Matrix : Default (H.263)
Codec ID : XVID
Codec ID/Hint : XviD
Duration : 1h 7mn
Bit rate : 2 109 Kbps
Width : 720 pixels
Height : 544 pixels
Display aspect ratio : 4:3
Frame rate : 24.000 fps
Resolution : 8 bits
Colorimetry : 4:2:0
Scan type : Progressive
Bits/(Pixel*Frame) : 0.224
Stream size : 1 012 MiB (91%)
Writing library : XviD 73
Audio
ID : 1
Format : AC-3
Format/Info : Audio Coding 3
Codec ID : 2000
Duration : 1h 7mn
Bit rate mode : Constant
Bit rate : 192 Kbps
Channel(s) : 2 channels
Channel positions : Front: L R
Sampling rate : 48.0 KHz
Stream size : 92.2 MiB (8%)
Alignment : Aligned on interleaves
Interleave, duration : 42 ms (1.00 video frame)
Interleave, preload duration : 512 ms

Скриншот c названием фильма

Скриншоты

[teatrix.ru].t4328.torrent 
Торрент: Зарегистрирован [ 2015-10-07 20:05 ] · B5011F153B67401453A6AA99AAEC6919801B283B

Скачать .torrent

Скачать

11 KB

Статус: проверено
Скачан: 0 раз
Размер: 1.08 GB
terms.php



Быстрый ответ

Имя:

      
Для отправки сообщений необходимо включить JavaScript
Показать сообщения:    

Текущее время: 08-Дек 23:13

Часовой пояс: UTC + 3


Вы можете начинать темы
Вы можете отвечать на сообщения
Вы не можете редактировать свои сообщения
Вы не можете удалять свои сообщения
Вы не можете голосовать в опросах
Вы не можете прикреплять файлы к сообщениям
Вы можете скачивать файлы