Угольные деньги / Черные деньги / Tong dao / Coal Money (Ван Бин / Bing Wang) [2008, Франция, документальный, DVDRip] Sub Rus + Original Chi


Статистика раздачи [Обновить пиров]
Размер:  742 MB   |    Зарегистрирован:  1 год 1 месяц   |    Скачан:  1 раз

Полного источника не было: 5 месяцев 12 дней

 
   
 
 
 

[Цитировать]

Угольные деньги / Черные деньги / Tong dao / Coal Money
Страна: Франция
Жанр: документальный
Год выпуска: 2008
Продолжительность: 00:53:27
Перевод: субтитры
Cубтитры: русский
Оригинальная аудиодорожка: китайский
Режиссер: Ван Бин / Bing Wang
В ролях: продавцы угля
Описание: Будни людей, которые зарабатывают на жизнь продажей угля. Загрузка в угольном карьере во Внутренней Монголии, перевозка по Китаю, поиск покупателей, споры, ссоры насчёт денег. Уголь неважнецкий, в нём много камней, поэтому продавцы хотят его всучить покупателю, а покупатель – сбить цену. Борьба за каждые 10 юаней, обшарпанные забегаловки, скучные выгоревшие пейзажи, вечная пыль – угольная и дорожная. Обман на каждом шагу, тяжёлая работа, бесконечные дни.
Доп. информация: Перевод – Ольга Букач, тайминг – alex-kin.
Файл взят с Карагарги, за что благодарим mysteriousmountain.
Сэмпл: http://multi-up.com/1060096

Фильмы Ван Бина на трекере

Человек без имени (Ван Бин / Bing Wang) (2009) http://teatrix.ru/viewtopic.php?t=4381
Угольные деньги (Ван Бин / Bing Wang) (2009) http://teatrix.ru/viewtopic.php?t=4329
Одни (Ван Бин / Bing Wang) (2013) http://teatrix.ru/viewtopic.php?t=4317
Канава / Jiabiangou / The Ditch (Ван Бин / Bing Wang) (2010) http://teatrix.ru/viewtopic.php?t=5679
Качество видео: DVDRip
Формат видео: AVI
Видео: XviD build 46 at 1927 kbps, 0.27 bit/pixel, 720x400 (1.80:1) at 25 fps
Аудио: MPEG Layer 3 at 128.00 kbps, 2 ch, 48 kHz

Субтитры

Формат субтитров: srt
Фрагмент субтитров:
1
00:00:09,440 --> 00:00:13,399
Угольные деньги
2
00:00:14,560 --> 00:00:18,135
Фильм Ван Биня
3
00:00:21,680 --> 00:00:24,760
Внутренняя Монголия,
провинции Шэньси и Хэбэй, Китай
4
00:00:51,919 --> 00:00:54,479
Верхний слой плохой.
5
00:00:54,799 --> 00:00:55,948
Слишком много камней.
6
00:00:56,240 --> 00:00:58,276
- Он нужен для получения электроэнергии?
- Да.
7
00:01:04,439 --> 00:01:06,794
Здесь много народу из Шэньси.
8
00:01:14,759 --> 00:01:17,193
Вы, ребята, такие жадные.
9
00:01:17,519 --> 00:01:19,589
Вы захватили Внутреннюю Монголию.
10
00:01:21,199 --> 00:01:22,678
В горнодобывающей промышленности
крутятся большие деньги.
11
00:01:22,959 --> 00:01:24,551
Не такие уж большие.
12
00:01:24,839 --> 00:01:29,276
Здесь остались только те шахты,
которые были не нужны монголам.
13
00:01:30,559 --> 00:01:32,390
Но вы зашибаете кучу денег.
14
00:01:34,880 --> 00:01:36,677
Поэтому люди и приезжают сюда.
15
00:01:36,959 --> 00:01:39,519
Здесь так много грузовиков,
не протолкнуться.
16
00:01:40,519 --> 00:01:42,635
Вы просто гребете деньги лопатой!
17
00:01:43,520 --> 00:01:46,751
Мы только начинаем получать прибыль.
18
00:01:51,559 --> 00:01:53,356
Сколько у Вас земли?
19
00:01:54,119 --> 00:01:56,553
- Восемь гектаров.
- Здесь, под нами?
20
00:01:57,479 --> 00:01:58,878
Сколько Вы за это заплатили?

MediaInfo

Формат : AVI
Формат/Информация : Audio Video Interleave
Размер файла : 742 Мбайт
Продолжительность : 53 м.
Общий поток : 1941 Кбит/сек
Видео
Идентификатор : 0
Формат : MPEG-4 Visual
Профиль формата : Simple@L3
Параметр BVOP формата : Нет
Параметр QPel формата : Нет
Параметр GMC формата : Без точки перехода
Параметр матрицы формата : Default (H.263)
Идентификатор кодека : XVID
Идентификатор кодека/Подсказка : XviD
Продолжительность : 53 м.
Битрейт : 1800 Кбит/сек
Ширина : 720 пикс.
Высота : 400 пикс.
Соотношение сторон : 16:9
Частота кадров : 25,000 кадр/сек
Цветовое пространство : YUV
Подвыборка цветности : 4:2:0
Битовая глубина : 8 бит
Тип развёртки : Прогрессивная
Метод сжатия : С потерями
Бит/(Пиксели*Кадры) : 0.250
Размер потока : 688 Мбайт (93%)
Библиотека кодирования : XviD 1.1.2 (UTC 2006-11-01)
Аудио
Идентификатор : 1
Формат : MPEG Audio
Версия формата : Version 1
Профиль формата : Layer 3
Режим : Joint stereo
Расширение режима : MS Stereo
Идентификатор кодека : 55
Идентификатор кодека/Подсказка : MP3
Продолжительность : 53 м.
Вид битрейта : Постоянный
Битрейт : 128 Кбит/сек
Канал(ы) : 2 канала(ов)
Частота : 48,0 КГц
Метод сжатия : С потерями
Размер потока : 48,9 Мбайт (7%)
Выравнивание : Разделение по промежуткам
Продолжительность промежутка : 24 мс. (0,60 видеокадр)

Скриншот c названием фильма

Скриншоты




[teatrix.ru].t4329.torrent 
Торрент: Зарегистрирован [ 2015-10-07 20:05 ] · 23E294EC0CCE6AA2A0DE244C9543724ACB216FB6

Скачать .torrent

Скачать

15 KB

Статус: проверено
Скачан: 1 раз
Размер: 742 MB
terms.php



Быстрый ответ

Имя:

      
Для отправки сообщений необходимо включить JavaScript
Показать сообщения:    

Текущее время: 07-Дек 11:39

Часовой пояс: UTC + 3


Вы можете начинать темы
Вы можете отвечать на сообщения
Вы не можете редактировать свои сообщения
Вы не можете удалять свои сообщения
Вы не можете голосовать в опросах
Вы не можете прикреплять файлы к сообщениям
Вы можете скачивать файлы