Идет армия голого короля / Голая армия императора идет вперед / Yuki Yukite shingun (Кацуо Хара / Kazuo Hara) [1987, Япония, документальный, история, война, DVDRip] Sub Rus + Original Jap


Статистика раздачи [Обновить пиров]
Размер:  699 MB   |    Зарегистрирован:  1 год 1 месяц   |    Скачан:  0 раз

Полного источника не было: Никогда

 
   
 
 
 

[Цитировать]

Голая армия императора идет вперед / Yuki Yukite shingun
Страна: Япония
Жанр: документальный, история, война
Год выпуска: 1987
Продолжительность: 02:01:09
Перевод: Субтитры
Cубтитры: русские
Оригинальная аудиодорожка: японский
Режиссер: Кацуо Хара / Kazuo Hara
В ролях: Кензо Окузаки, Риичи Аикава, Масаищи Хамагучи, Тошио Хара, Масао Кошимизу и другие
Описание: Кендзо Окудзаки имеет три судимости, из которых одну он получил за убийство, а две других за оскорбительные действия в отношении императора. Для японского общества Кендзо экстремист. Однако, не всё так просто. Окудзаки ветеран и на протяжении долгого времени он пытается добиться справедливости в отношении двух солдат Японской армии, которых казнили офицеры, хотя формально война была завершена вот уже несколько дней.
Именно этому расследованию и посвящён фильм «Голая армия императора идет вперед» радикального японского документалиста Кацуо Хара.
На протяжении всего фильма, Окудзаки ходит от одного своего бывшего сослуживца к другому и пытается узнать, что же на самом деле произошло в тот роковой 1945 год. И постепенно Окудзаки узнаёт такую правду, от которой стынет кровь в жилах.
Доп. информация:
Фильм входит в рейтинги:
100 Documentary Films (BFI Screen Guide);
Лучшие документальные фильмы по версии издания Sight & Sound;
Список документальных фильмов, рекомендуемых Гарвардским университетом для соискателей кандидатской степени в киноведении.
Похожие фильмы:
Акт убийства — Фильм рассказывает о том, как в Индонезии вольготно себя чувствуют убийцы, которые принимали участие в массовой резне коммунистов 1965 года. Самое страшное то, что в отличие от японских военных преступников, индонезийские убийцы буквально хвалятся количеством убитых человек и смекалкой в применении необычных способов казни.
Солнце
Самый длинный день Японии
Сэмпл: http://sendfile.su/1140355
Качество видео: DVDRip
Формат видео: AVI
Видео: Xvid, 624x464, 4:3, 23.976fps, 669kbps
Аудио: MP3, 48000Hz, 124kbps, stereo
Формат субтитров: softsub (SRT)

MediaInfo

Общее
Полное имя : F:\Видеотека\Документальные фильмы\Cheked movies\Голая армия императора идет вперед (Yuki Yukite shingun), 1987\The.Emperor's.Naked.Army.Marches.On.(Kazuo.Hara,.1987).DVDRip-624x464.avi
Формат : AVI
Формат/Информация : Audio Video Interleave
Размер файла : 699 Мбайт
Продолжительность : 2 ч. 1 м.
Режим общего битрейта : Переменный
Общий поток : 806 Кбит/сек
Программа кодирования : Nandub v1.0rc2
Библиотека кодирования : Nandub build 1852/release
Видео
Идентификатор : 0
Формат : MPEG-4 Visual
Профиль формата : Advanced Simple@L5
Параметр BVOP формата : 2
Параметр QPel формата : Да
Параметр GMC формата : Без точки перехода
Параметр матрицы формата : Default (H.263)
Режим смешивания : Сжатый битовый поток
Идентификатор кодека : XVID
Идентификатор кодека/Подсказка : XviD
Продолжительность : 2 ч. 1 м.
Битрейт : 669 Кбит/сек
Ширина : 624 пикселя
Высота : 464 пикселя
Соотношение сторон : 4:3
Частота кадров : 23,976 кадра/сек
Цветовое пространство : YUV
Субдискретизация насыщенности : 4:2:0
Битовая глубина : 8 бит
Тип развёртки : Прогрессивная
Метод сжатия : С потерями
Бит/(Пиксели*Кадры) : 0.096
Размер потока : 580 Мбайт (83%)
Библиотека кодирования : XviD 1.1.0 (UTC 2005-11-22)
Аудио
Идентификатор : 1
Формат : MPEG Audio
Версия формата : Version 1
Профиль формата : Layer 3
Режим : Joint stereo
Расширение режима : MS Stereo
Идентификатор кодека : 55
Идентификатор кодека/Подсказка : MP3
Продолжительность : 2 ч. 1 м.
Вид битрейта : Переменный
Битрейт : 125 Кбит/сек
Каналы : 2 канала
Частота : 48,0 КГц
Метод сжатия : С потерями
Размер потока : 108 Мбайт (15%)
Выравнивание : Соединение по промежуткам
Продолжительность промежутка : 24 мс. (0,58 видеокадр)
Время предзагрузки промежутка : 394 мс.
Библиотека кодирования : LAME3.90.
Настройки программы : -m j -V 4 -q 2 -lowpass 17.6 --abr 125

Скриншот c названием фильма

Скриншоты



[teatrix.ru].t4330.torrent 
Торрент: Зарегистрирован [ 2015-10-07 20:05 ] · 3A8E58C7BA03856A41B8AFD1750AD438F6B96E00

Скачать .torrent

Скачать

14 KB

Статус: проверено
Скачан: 0 раз
Размер: 699 MB
terms.php



Быстрый ответ

Имя:

      
Для отправки сообщений необходимо включить JavaScript
Показать сообщения:    

Текущее время: 07-Дек 13:41

Часовой пояс: UTC + 3


Вы можете начинать темы
Вы можете отвечать на сообщения
Вы не можете редактировать свои сообщения
Вы не можете удалять свои сообщения
Вы не можете голосовать в опросах
Вы не можете прикреплять файлы к сообщениям
Вы можете скачивать файлы