Животная любовь / Звериная любовь / Animal Love / Tierische Liebe (Ульрих Зайдль / Ulrich Seidl) [1996, Австрия, документальный, DVDRip] Sub Rus + Original Ger


Статистика раздачи [Обновить пиров]
Размер:  1.17 GB   |    Зарегистрирован:  1 год 1 месяц   |    Скачан:  0 раз

Полного источника не было: Никогда

 
   
 
 
 

[Цитировать]

Звериная любовь / Animal Love / Tierische Liebe
Страна: Австрия
Жанр: документальный
Год выпуска: 1996
Продолжительность: 01:46:10
Перевод: Субтитры русские - дед_сто_лет©
Оригинальная аудиодорожка: немецкий
Режиссер: Ульрих Зайдль / Ulrich Seidl
Описание: Исследователь человеческих душ Ульрих Зайдль пытается понять человечество через любовь к животным. Он чувствует, как нуждаются люди в существах, над которыми они могут властвовать безрадельно. Представляя свой фильм на ММКФ, режиссер сказал, что на экране показаны мы сами: приглядитесь внимательно - вас снимают.©
> > > > > > >
Качество видео: DVDRip
Формат видео: AVI
Видео: 704x416 (1.69:1), 25 fps, XviD build 50 ~1459 kbps avg, 0.20 bit/pixel
Аудио: 48 kHz, MPEG Layer 3, 2 ch, ~105.70 kbps avg
Формат субтитров: softsub (SRT)
Доп. информация о субтитрах: дед_сто_лет©
18+

Пример субтитров

432
00:33:40,950 --> 00:33:43,540
Вот как нужно всё регулировать.
433
00:33:43,540 --> 00:33:45,300
Правила не для меня.
434
00:33:47,040 --> 00:33:50,270
Поскольку существует
интеллектуальная свобода...
435
00:33:50,270 --> 00:33:52,730
... которая полностью прерывается
любой регуляцией.
436
00:33:52,730 --> 00:33:55,100
Вот так. Ты понял?
437
00:33:55,100 --> 00:33:56,200
Я это знаю.
438
00:34:40,000 --> 00:34:41,180
Сидеть!
439
00:34:43,930 --> 00:34:45,250
Сидеть!
440
00:34:45,250 --> 00:34:46,470
И дай лапу!
441
00:35:03,250 --> 00:35:06,210
Как удовлетворять женщину...
442
00:35:07,230 --> 00:35:08,410
Говорится...
443
00:35:08,410 --> 00:35:12,870
Если у вашей партнерши чувстви-
тельные груди надо их лизать и сосать.
444
00:35:12,870 --> 00:35:15,100
... страстно целуйте соски.
445
00:35:17,680 --> 00:35:18,700
Это я умею.
446
00:35:18,700 --> 00:35:22,910
Нужно извлечь из этого столько
удовольствия, сколько ей нужно.
447
00:35:22,910 --> 00:35:24,430
Думаю, да.
448
00:35:24,430 --> 00:35:27,100
Я это знаю, я это уже где-то читал.
449
00:35:27,780 --> 00:35:30,450
Исследуйте губами всё её тело.
450
00:35:30,450 --> 00:35:33,140
Целуйте её нежно...
451
00:35:33,140 --> 00:35:35,110
... пока не дойдете до половых губ.
452
00:35:35,700 --> 00:35:37,530
У меня это не занимает много времени.
453
00:35:38,820 --> 00:35:42,600
Когда доберетесь до кли-то-ра...
454
00:35:42,600 --> 00:35:44,210
... странное слово.
455
00:35:44,210 --> 00:35:47,040
- Это дырка по-немецки.
- П...да
456
00:35:47,040 --> 00:35:49,140
... ласкайте его языком.

MediaInfo

General
Complete name : C:\...\Animal Love\Tierische.Liebe.German.1995.DVDRip.Xvid-FF.avi
Format : AVI
Format/Info : Audio Video Interleave
File size : 1.17 GiB
Duration : 1h 46mn
Overall bit rate mode : Variable
Overall bit rate : 1 579 Kbps
Writing application : VirtualDubMod 1.5.4.1 (build 2178/release)
Writing library : VirtualDubMod build 2178/release
Video
ID : 0
Format : MPEG-4 Visual
Format profile : Advanced Simple@L5
Format settings, BVOP : 1
Format settings, QPel : No
Format settings, GMC : No warppoints
Format settings, Matrix : Custom
Codec ID : XVID
Codec ID/Hint : XviD
Duration : 1h 46mn
Bit rate : 1 460 Kbps
Width : 704 pixels
Height : 416 pixels
Display aspect ratio : 1.692
Frame rate : 25.000 fps
Color space : YUV
Chroma subsampling : 4:2:0
Bit depth : 8 bits
Scan type : Progressive
Compression mode : Lossy
Bits/(Pixel*Frame) : 0.199
Stream size : 1.08 GiB (92%)
Writing library : XviD 1.2.1 (UTC 2008-12-04)
Audio
ID : 1
Format : MPEG Audio
Format version : Version 1
Format profile : Layer 3
Mode : Joint stereo
Mode extension : MS Stereo
Codec ID : 55
Codec ID/Hint : MP3
Duration : 1h 46mn
Bit rate mode : Variable
Bit rate : 106 Kbps
Nominal bit rate : 128 Kbps
Channel(s) : 2 channels
Sampling rate : 48.0 KHz
Compression mode : Lossy
Stream size : 80.3 MiB (7%)
Alignment : Aligned on interleaves
Interleave, duration : 24 ms (0.60 video frame)
Interleave, preload duration : 174 ms
Writing library : LAME3.98r
Encoding settings : -m j -V 4 -q 2 -lowpass 17 --abr 128
Language : German

Скриншот c названием фильма

Скриншоты

[teatrix.ru].t4332.torrent 
Торрент: Зарегистрирован [ 2015-10-07 20:05 ] · 80A73A9B961C4D6906D8F4F74FF487788F147EF3

Скачать .torrent

Скачать

12 KB

Статус: проверено
Скачан: 0 раз
Размер: 1.17 GB
terms.php



Быстрый ответ

Имя:

      
Для отправки сообщений необходимо включить JavaScript
Показать сообщения:    

Текущее время: 06-Дек 19:03

Часовой пояс: UTC + 3


Вы можете начинать темы
Вы можете отвечать на сообщения
Вы не можете редактировать свои сообщения
Вы не можете удалять свои сообщения
Вы не можете голосовать в опросах
Вы не можете прикреплять файлы к сообщениям
Вы можете скачивать файлы