Всегда на радость / Все ради удовольствия / Always for Pleasure (Лес Бланк / Les Blank) [1978, США, документальный, музыка, DVDRip-AVC] Sub Rus, Eng + Original Eng


Статистика раздачи [Обновить пиров]
Размер:  910 MB   |    Зарегистрирован:  1 год 1 месяц   |    Скачан:  0 раз

Полного источника не было: Никогда

 
   
 
 
 

[Цитировать]

Все ради удовольствия / Always for Pleasure
Страна: США
Жанр: Документальный, музыка
Год выпуска: 1978
Продолжительность: 00:57:40
Перевод: Субтитры
Cубтитры: русские
Режиссер: Лес Бланк / Les Blank
В ролях: Алан Туссен, группа The Wild Tchoupitoulas, Ирма Томас
Описание: Экспериментальный документальный фильм о Новом Орлеане, его культуре, музыке, кухне и жителях. Режиссер Лес Бланк в поэтической манере пытается передать культуру "Города без забот", погружается в бурлящий карнавал Марди Гра и берет интервью у легендарных новоорлеанских музыкантов, рестораторов и участников социальных клубов.
Сэмпл: https://yadi.sk/i/cNh3Jfn6hyXZy
Качество видео: DVDRip-AVC
Формат видео: MKV
Видео: x264, 768x576 (4:3), 2012 Kbps, 23.976 fps
Аудио: English: AC3, 1 ch 192 Kbps, 48.0 KHz
Формат субтитров: softsub (SRT)

MediaInfo

General
Unique ID : 239067363071745518726513769007065822106 (0xB3DAB30710B386A99E24A532691B739A)
Complete name : D:\film\Always for Pleasure (Les Blank, 1978)\Les Blank - (1978) Always for Pleasure.mkv
Format : Matroska
Format version : Version 2
File size : 910 MiB
Duration : 57mn 40s
Overall bit rate : 2 207 Kbps
Encoded date : UTC 2015-03-15 21:57:14
Writing application : mkvmerge v7.7.0 ('Six Voices') 32bit built on Feb 28 2015 23:23:00
Writing library : libebml v1.3.1 + libmatroska v1.4.2
DURATION : 00:56:49.107000000
NUMBER_OF_FRAMES : 656
NUMBER_OF_BYTES : 1063831
_STATISTICS_WRITING_APP : mkvmerge v7.7.0 ('Six Voices') 32bit built on Feb 28 2015 23:23:00
_STATISTICS_WRITING_DATE_UTC : 2015-03-15 21:57:14
_STATISTICS_TAGS : BPS DURATION NUMBER_OF_FRAMES NUMBER_OF_BYTES
Video
ID : 1
Format : AVC
Format/Info : Advanced Video Codec
Format profile : High@L4.1
Format settings, CABAC : Yes
Format settings, ReFrames : 10 frames
Codec ID : V_MPEG4/ISO/AVC
Duration : 57mn 40s
Bit rate : 2 012 Kbps
Width : 768 pixels
Height : 576 pixels
Display aspect ratio : 4:3
Frame rate mode : Constant
Frame rate : 23.976 fps
Color space : YUV
Chroma subsampling : 4:2:0
Bit depth : 8 bits
Scan type : Progressive
Bits/(Pixel*Frame) : 0.190
Stream size : 813 MiB (89%)
Writing library : x264 core 146 r2538 121396c
Encoding settings : cabac=1 / ref=10 / deblock=1:-1:-1 / analyse=0x3:0x133 / me=umh / subme=11 / psy=1 / psy_rd=1.00:0.15 / mixed_ref=1 / me_range=32 / chroma_me=1 / trellis=2 / 8x8dct=1 / cqm=0 / deadzone=21,11 / fast_pskip=0 / chroma_qp_offset=-3 / threads=12 / lookahead_threads=3 / sliced_threads=0 / nr=0 / decimate=0 / interlaced=0 / bluray_compat=0 / constrained_intra=0 / bframes=16 / b_pyramid=2 / b_adapt=2 / b_bias=0 / direct=3 / weightb=1 / open_gop=0 / weightp=2 / keyint=240 / keyint_min=23 / scenecut=40 / intra_refresh=0 / rc_lookahead=100 / rc=2pass / mbtree=0 / bitrate=2012 / ratetol=3.0 / qcomp=0.60 / qpmin=0 / qpmax=69 / qpstep=4 / cplxblur=20.0 / qblur=0.5 / vbv_maxrate=62500 / vbv_bufsize=78125 / nal_hrd=none / filler=0 / ip_ratio=1.40 / pb_ratio=1.30 / aq=1:1.00
Language : English
Default : Yes
Forced : No
DURATION : 00:57:40.040000000
NUMBER_OF_FRAMES : 82958
NUMBER_OF_BYTES : 869821281
_STATISTICS_WRITING_APP : mkvmerge v7.7.0 ('Six Voices') 32bit built on Feb 28 2015 23:23:00
_STATISTICS_WRITING_DATE_UTC : 2015-03-15 21:57:14
_STATISTICS_TAGS : BPS DURATION NUMBER_OF_FRAMES NUMBER_OF_BYTES
Matrix coefficients : BT.709
Audio
ID : 2
Format : AC-3
Format/Info : Audio Coding 3
Mode extension : CM (complete main)
Format settings, Endianness : Big
Codec ID : A_AC3
Duration : 57mn 40s
Bit rate mode : Constant
Bit rate : 192 Kbps
Channel(s) : 1 channel
Channel positions : Front: C
Sampling rate : 48.0 KHz
Bit depth : 16 bits
Compression mode : Lossy
Stream size : 79.2 MiB (9%)
Language : English
Default : Yes
Forced : No
Text
ID : 3
Format : VobSub
Muxing mode : zlib
Codec ID : S_VOBSUB
Codec ID/Info : The same subtitle format used on DVDs
Language : English
Default : Yes
Forced : No
Menu
00:00:00.000 : en:00:00:00.000
00:03:18.782 : en:00:03:18.782
00:14:14.479 : en:00:14:14.479
00:18:16.887 : en:00:18:16.887
00:20:54.253 : en:00:20:54.253
00:25:12.469 : en:00:25:12.469
00:30:17.024 : en:00:30:17.024
00:34:52.757 : en:00:34:52.757
00:38:16.503 : en:00:38:16.503
00:44:31.210 : en:00:44:31.210
00:50:35.658 : en:00:50:35.658

Скриншот c названием фильма

Скриншоты

[teatrix.ru].t4334.torrent 
Торрент: Зарегистрирован [ 2015-10-07 20:05 ] · CC8DF0CA2F8643D471679872B63F505502DF5060

Скачать .torrent

Скачать

18 KB

Статус: проверено
Скачан: 0 раз
Размер: 910 MB
terms.php



Быстрый ответ

Имя:

      
Для отправки сообщений необходимо включить JavaScript
Показать сообщения:    

Текущее время: 04-Дек 15:18

Часовой пояс: UTC + 3


Вы можете начинать темы
Вы можете отвечать на сообщения
Вы не можете редактировать свои сообщения
Вы не можете удалять свои сообщения
Вы не можете голосовать в опросах
Вы не можете прикреплять файлы к сообщениям
Вы можете скачивать файлы