Записки об одежде и городах / Заметки об одежде и городах / Aufzeichnungen zu Kleidern und Städten / Notebook on Clothes and Cities (Вим Вендерс / Wim Wenders) [1989, Германия (ФРГ), документальный, DVDRip] VO + Sub Rus + Original Eng


Статистика раздачи [Обновить пиров]
Размер:  1.46 GB   |    Зарегистрирован:  1 год 1 месяц   |    Скачан:  2 раза

Полного источника не было: 1 месяц 4 дня

 
   
 
 
 

[Цитировать]

Записки об одежде и городах / Заметки об одежде и городах / Aufzeichnungen zu Kleidern und Städten / Notebook on Clothes and Cities
Страна: ФРГ
Жанр: документальный
Год выпуска: 1989
Продолжительность: 01:21:14
Перевод: Студийный (одноголосый закадровый)
Cубтитры: русские
Оригинальная аудиодорожка: английский

Режиссер: Вим Вендерс / Wim Wenders
В ролях: Вим Вендерс, Йодзи Ямамото
Описание: Японский модельер Йоджи Ямамото известен во всем мире. Даже те, кто не следит за модой, вынуждены быть в курсе его коллекций. Недаром уровень криминальных боевиков критики всерьез определяют по тому, одеты мафиози в костюмы от Армани или от Ямамото.
В фильме всемирно признанный автор предстает в необычном ракурсе. Вендерс был допущен в святая святых — мастерскую. Ему было позволено снимать Ямамото за работой. Мы получаем уникальную возможность, следить за работой мастера, за тем, как он общается с топ-моделями и советуется с портными.
На наших глазах из кусков материи возникают платья, безупречные по стилю и фантастические по цене. Ямамото раскрывает Вендерсу секреты вдохновения, делится своими мыслями о Нью-Йорке и Токио, о скрытых от непосвященных тонкостях, позволяющих жить в двух разных мирах.

Качество видео: DVDRip
Формат видео: AVI
Видео: 688x400 (1.72:1), 23.976 fps, XviD build 73 ~2168 kbps avg, 0.33 bit/pixel
Аудио: 48 kHz, AC3 Dolby Digital, 2/0 (L,R) ch, ~192 kbps - одноголосый
Аудио: 48 kHz, AC3 Dolby Digital, 2/0 (L,R) ch, ~192 kbps - оригинал

MediaInfo

Общее
Полное имя : H:\Notebook.on.Cities.and.Clothes.1989.dvdrip_[1.46]_[teko]\Notebook.on.Cities.and.Clothes.1989.dvdrip_[1.46].avi
Формат : AVI
Формат/Информация : Audio Video Interleave
Размер файла : 1,46 Гбайт
Продолжительность : 1 ч. 21 м.
Общий поток : 2567 Кбит/сек
Программа кодирования : VirtualDubMod 1.5.10.3 | www.virtualdub-fr.org || (build 2550/release)
Библиотека кодирования : VirtualDubMod build 2550/release
Видео
Идентификатор : 0
Формат : MPEG-4 Visual
Профиль формата : Advanced Simple@L5
Параметр BVOP формата : 1
Параметр QPel формата : Нет
Параметр GMC формата : Без точки перехода
Параметр матрицы формата : Выборочная
Идентификатор кодека : XVID
Идентификатор кодека/Подсказка : XviD
Продолжительность : 1 ч. 21 м.
Битрейт : 2169 Кбит/сек
Ширина : 688 пикселей
Высота : 400 пикселей
Соотношение сторон : 1,720
Частота кадров : 23,976 кадра/сек
Цветовое пространство : YUV
Субдискретизация насыщенности : 4:2:0
Битовая глубина : 8 бит
Тип развёртки : Прогрессивная
Метод сжатия : С потерями
Бит/(Пиксели*Кадры) : 0.329
Размер потока : 1,23 Гбайт (84%)
Библиотека кодирования : XviD 73
Аудио #1
Идентификатор : 1
Формат : AC-3
Формат/Информация : Audio Coding 3
Расширение режима : CM (complete main)
Параметр Endianness формата : Big
Идентификатор кодека : 2000
Продолжительность : 1 ч. 21 м.
Вид битрейта : Постоянный
Битрейт : 192 Кбит/сек
Каналы : 2 канала
Расположение каналов : Front: L R
Частота : 48,0 КГц
Битовая глубина : 16 бит
Метод сжатия : С потерями
Размер потока : 112 Мбайт (7%)
Выравнивание : Разделение по промежуткам
Продолжительность промежутка : 42 мс. (1,00 видеокадр)
Время предзагрузки промежутка : 500 мс.
Аудио #2
Идентификатор : 2
Формат : AC-3
Формат/Информация : Audio Coding 3
Расширение режима : CM (complete main)
Параметр Endianness формата : Big
Идентификатор кодека : 2000
Продолжительность : 1 ч. 21 м.
Вид битрейта : Постоянный
Битрейт : 192 Кбит/сек
Каналы : 2 канала
Расположение каналов : Front: L R
Частота : 48,0 КГц
Битовая глубина : 16 бит
Метод сжатия : С потерями
Размер потока : 112 Мбайт (7%)
Выравнивание : Разделение по промежуткам
Продолжительность промежутка : 42 мс. (1,00 видеокадр)
Время предзагрузки промежутка : 500 мс.

Скриншоты

Релиз группы:
--
[teatrix.ru].t4336.torrent 
Торрент: Зарегистрирован [ 2015-10-07 20:05 ] · AC0048D58E6377B5473628F95C44F9A6A0CD1419

Скачать .torrent

Скачать

15 KB

Статус: проверено
Скачан: 2 раз
Размер: 1.46 GB
terms.php



Быстрый ответ

Имя:

      
Для отправки сообщений необходимо включить JavaScript
Показать сообщения:    

Текущее время: 06-Дек 22:46

Часовой пояс: UTC + 3


Вы можете начинать темы
Вы можете отвечать на сообщения
Вы не можете редактировать свои сообщения
Вы не можете удалять свои сообщения
Вы не можете голосовать в опросах
Вы не можете прикреплять файлы к сообщениям
Вы можете скачивать файлы